[Valenciano] Yowamushi Pedal - Limit Break - 22 [1080p][AV1 10bit][AAC][Multi-Sub] (Weekly).mkv


File Size293.8 MB (308,091,858 bytes)
DownloadAnonFiles | ClickNUpload | DownloadGG | KrakenFiles | MultiUp
  • BdUpload
  • DownAce
  • Fichier
  • FileCloud
  • Filerio
  • FilesCdn
  • IndiShare
  • Kbagi
  • Turbobit
  • UpToBox
  • Uppit
| ZippyShare
HashesCRC32: 070844E4, MD5: BCEA4DB792461581EC74BFB642B3BF56, SHA1: 86085333ABE4EC155F2A0AD02A2B93F9ACEE388E, SHA256: 704FE78C55736A1CAA0AB9F2534D9279C7A4285439DB86D26FD40C2E10F7B74B, ED2K: 81289E85C67FD4F1114F6A3DC005C737
Screenshots
screenshotscreenshotscreenshotscreenshotscreenshot
SubtitlesAll Attachments | English [eng, ASS], Portuguese(Brazil) [por, ASS], Spanish(Latin_America) [spa, ASS], Spanish [spa, ASS], French [fre, ASS], German [ger, ASS], Italian [ita, ASS], Russian [rus, ASS]
Additional Info
General
Unique ID                                : 122775903089278395986929000432130880533 (0x5C5DC760CE2C77690A7A06A107607415)
Complete name                            : [Valenciano] Yowamushi Pedal - Limit Break - 22 [1080p][AV1 10bit][AAC][Multi-Sub] (Weekly).mkv
Format                                   : Matroska
Format version                           : Version 4
File size                                : 294 MiB
Duration                                 : 24 min 55 s
Overall bit rate                         : 1 648 kb/s
Encoded date                             : UTC 2023-03-12 08:38:44
Writing application                      : mkvmerge v74.0.0 ('You Oughta Know') 64-bit
Writing library                          : libebml v1.4.4 + libmatroska v1.7.1 / Lavf59.27.100
Attachments                              : arialbd.ttf / arialbi.ttf / Arial_0.ttf / ariblk_0.TTF / calibri.ttf / comicbd.ttf / comic_0.ttf / georgiab.ttf / georgiaz.ttf / georgia_0.ttf / impact_0.ttf / Tahoma_0.ttf / times_0.ttf / trebuc_0.ttf / verdana_0.ttf / AdobeArabic-Bold.otf / AdobeArabic-BoldItalic.otf / AdobeArabic-Italic.otf / AdobeArabic-Regular.otf

Video
ID                                       : 10
Format                                   : AV1
Format/Info                              : AOMedia Video 1
Format profile                           : Main@L4.0
Codec ID                                 : V_AV1
Duration                                 : 24 min 55 s
Bit rate                                 : 1 477 kb/s
Width                                    : 1 920 pixels
Height                                   : 1 080 pixels
Display aspect ratio                     : 16:9
Frame rate mode                          : Constant
Frame rate                               : 23.976 (24000/1001) FPS
Color space                              : YUV
Chroma subsampling                       : 4:2:0
Bit depth                                : 10 bits
Bits/(Pixel*Frame)                       : 0.030
Stream size                              : 263 MiB (90%)
Default                                  : Yes
Forced                                   : No
Color range                              : Limited

Audio
ID                                       : 9
Format                                   : AAC LC
Format/Info                              : Advanced Audio Codec Low Complexity
Codec ID                                 : A_AAC-2
Duration                                 : 24 min 55 s
Bit rate                                 : 128 kb/s
Channel(s)                               : 2 channels
Channel layout                           : L R
Sampling rate                            : 44.1 kHz
Frame rate                               : 43.066 FPS (1024 SPF)
Compression mode                         : Lossy
Stream size                              : 22.8 MiB (8%)
Language                                 : Japanese
Default                                  : Yes
Forced                                   : No

Text #1
ID                                       : 1
Format                                   : ASS
Codec ID                                 : S_TEXT/ASS
Codec ID/Info                            : Advanced Sub Station Alpha
Duration                                 : 24 min 50 s
Bit rate                                 : 176 b/s
Count of elements                        : 378
Compression mode                         : Lossless
Stream size                              : 32.1 KiB (0%)
Title                                    : English
Language                                 : English
Default                                  : Yes
Forced                                   : No

Text #2
ID                                       : 2
Format                                   : ASS
Codec ID                                 : S_TEXT/ASS
Codec ID/Info                            : Advanced Sub Station Alpha
Duration                                 : 24 min 50 s
Bit rate                                 : 175 b/s
Count of elements                        : 368
Compression mode                         : Lossless
Stream size                              : 32.0 KiB (0%)
Title                                    : Portuguese(Brazil)
Language                                 : Portuguese
Default                                  : No
Forced                                   : No

Text #3
ID                                       : 3
Format                                   : ASS
Codec ID                                 : S_TEXT/ASS
Codec ID/Info                            : Advanced Sub Station Alpha
Duration                                 : 24 min 50 s
Bit rate                                 : 150 b/s
Count of elements                        : 348
Compression mode                         : Lossless
Stream size                              : 27.4 KiB (0%)
Title                                    : Spanish(Latin_America)
Language                                 : Spanish
Default                                  : No
Forced                                   : No

Text #4
ID                                       : 4
Format                                   : ASS
Codec ID                                 : S_TEXT/ASS
Codec ID/Info                            : Advanced Sub Station Alpha
Duration                                 : 24 min 50 s
Bit rate                                 : 151 b/s
Count of elements                        : 350
Compression mode                         : Lossless
Stream size                              : 27.6 KiB (0%)
Title                                    : Spanish
Language                                 : Spanish
Default                                  : No
Forced                                   : No

Text #5
ID                                       : 5
Format                                   : ASS
Codec ID                                 : S_TEXT/ASS
Codec ID/Info                            : Advanced Sub Station Alpha
Duration                                 : 24 min 50 s
Bit rate                                 : 144 b/s
Count of elements                        : 387
Compression mode                         : Lossless
Stream size                              : 26.3 KiB (0%)
Title                                    : French
Language                                 : French
Default                                  : No
Forced                                   : No

Text #6
ID                                       : 6
Format                                   : ASS
Codec ID                                 : S_TEXT/ASS
Codec ID/Info                            : Advanced Sub Station Alpha
Duration                                 : 24 min 50 s
Bit rate                                 : 154 b/s
Count of elements                        : 421
Compression mode                         : Lossless
Stream size                              : 28.0 KiB (0%)
Title                                    : German
Language                                 : German
Default                                  : No
Forced                                   : No

Text #7
ID                                       : 7
Format                                   : ASS
Codec ID                                 : S_TEXT/ASS
Codec ID/Info                            : Advanced Sub Station Alpha
Duration                                 : 24 min 50 s
Bit rate                                 : 198 b/s
Count of elements                        : 382
Compression mode                         : Lossless
Stream size                              : 36.1 KiB (0%)
Title                                    : Italian
Language                                 : Italian
Default                                  : No
Forced                                   : No

Text #8
ID                                       : 8
Format                                   : ASS
Codec ID                                 : S_TEXT/ASS
Codec ID/Info                            : Advanced Sub Station Alpha
Duration                                 : 24 min 50 s
Bit rate                                 : 192 b/s
Count of elements                        : 377
Compression mode                         : Lossless
Stream size                              : 34.9 KiB (0%)
Title                                    : Russian
Language                                 : Russian
Default                                  : No
Forced                                   : No
beta
Anime DDL+NZB mirror
Current Time: 22/04/2024 10:35



About/FAQs

Discord