[Valenciano] Undead Girl Murder Farce - 03 [1080p][AV1 10bit][AAC][Multi-Sub] (Weekly).mkv


File Size184.1 MB (193,038,994 bytes)
DownloadAnonFiles | ClickNUpload | DownloadGG | GoFile | KrakenFiles | MdiaLoad | MultiUp
  • BdUpload
  • DownAce
  • Fichier
  • FileCloud
  • Filerio
  • FilesCdn
  • IndiShare
  • Kbagi
  • Turbobit
  • UpToBox
  • Uppit
HashesCRC32: 702FC480, MD5: 10037627D9EF8A287AC7CEEACF6068BF, SHA1: 185DE82D0505511A6E555937C6884E18942096EA, SHA256: 2DE6FE7C658DEC1571F9F559E776943270E9ED3212660BE40CB2CEE286B7DE21, ED2K: 66D6690228D23D1B06D329E3503A6120
Screenshots
screenshotscreenshotscreenshotscreenshotscreenshot
SubtitlesAll Attachments | English [eng, ASS], Portuguese(Brazil) [por, ASS], Spanish(Latin_America) [spa, ASS], Spanish [spa, ASS], Arabic [ara, ASS], French [fre, ASS], German [ger, ASS], Italian [ita, ASS], Russian [rus, ASS]
Additional Info
General
Unique ID                                : 713577663567246232354279732587267222 (0x896E185895B689A474025E7B5C0496)
Complete name                            : [Valenciano] Undead Girl Murder Farce - 03 [1080p][AV1 10bit][AAC][Multi-Sub] (Weekly).mkv
Format                                   : Matroska
Format version                           : Version 4
File size                                : 184 MiB
Duration                                 : 22 min 50 s
Overall bit rate                         : 1 127 kb/s
Encoded date                             : UTC 2023-07-19 21:51:48
Writing application                      : mkvmerge v78.0 ('Running') 64-bit
Writing library                          : libebml v1.4.4 + libmatroska v1.7.1 / Lavf60.3.100
Attachments                              : arialbd.ttf / arialbi.ttf / Arial_0.ttf / ariblk_0.TTF / calibri.ttf / comicbd.ttf / comic_0.ttf / georgiab.ttf / georgiaz.ttf / georgia_0.ttf / impact_0.ttf / Tahoma_0.ttf / times_0.ttf / trebuc_0.ttf / verdana_0.ttf / AdobeArabic-Bold.otf / AdobeArabic-BoldItalic.otf / AdobeArabic-Italic.otf / AdobeArabic-Regular.otf

Video
ID                                       : 1
Format                                   : AV1
Format/Info                              : AOMedia Video 1
Format profile                           : Main@L4.0
Codec ID                                 : V_AV1
Duration                                 : 22 min 50 s
Bit rate                                 : 952 kb/s
Width                                    : 1 920 pixels
Height                                   : 1 080 pixels
Display aspect ratio                     : 16:9
Frame rate mode                          : Constant
Frame rate                               : 23.976 (24000/1001) FPS
Color space                              : YUV
Chroma subsampling                       : 4:2:0
Bit depth                                : 10 bits
Bits/(Pixel*Frame)                       : 0.019
Stream size                              : 155 MiB (84%)
Default                                  : Yes
Forced                                   : No
Color range                              : Limited

Audio
ID                                       : 2
Format                                   : AAC LC
Format/Info                              : Advanced Audio Codec Low Complexity
Codec ID                                 : A_AAC-2
Duration                                 : 22 min 50 s
Bit rate                                 : 128 kb/s
Channel(s)                               : 2 channels
Channel layout                           : L R
Sampling rate                            : 44.1 kHz
Frame rate                               : 43.066 FPS (1024 SPF)
Compression mode                         : Lossy
Stream size                              : 20.9 MiB (11%)
Language                                 : Japanese
Default                                  : Yes
Forced                                   : No

Text #1
ID                                       : 3
Format                                   : ASS
Codec ID                                 : S_TEXT/ASS
Codec ID/Info                            : Advanced Sub Station Alpha
Duration                                 : 19 min 52 s
Bit rate                                 : 183 b/s
Count of elements                        : 363
Compression mode                         : Lossless
Stream size                              : 26.7 KiB (0%)
Title                                    : English
Language                                 : English
Default                                  : Yes
Forced                                   : No

Text #2
ID                                       : 4
Format                                   : ASS
Codec ID                                 : S_TEXT/ASS
Codec ID/Info                            : Advanced Sub Station Alpha
Duration                                 : 19 min 52 s
Bit rate                                 : 185 b/s
Count of elements                        : 362
Compression mode                         : Lossless
Stream size                              : 27.0 KiB (0%)
Title                                    : Portuguese(Brazil)
Language                                 : Portuguese
Default                                  : No
Forced                                   : No

Text #3
ID                                       : 5
Format                                   : ASS
Codec ID                                 : S_TEXT/ASS
Codec ID/Info                            : Advanced Sub Station Alpha
Duration                                 : 19 min 52 s
Bit rate                                 : 182 b/s
Count of elements                        : 349
Compression mode                         : Lossless
Stream size                              : 26.6 KiB (0%)
Title                                    : Spanish(Latin_America)
Language                                 : Spanish
Default                                  : No
Forced                                   : No

Text #4
ID                                       : 6
Format                                   : ASS
Codec ID                                 : S_TEXT/ASS
Codec ID/Info                            : Advanced Sub Station Alpha
Duration                                 : 19 min 52 s
Bit rate                                 : 183 b/s
Count of elements                        : 349
Compression mode                         : Lossless
Stream size                              : 26.7 KiB (0%)
Title                                    : Spanish
Language                                 : Spanish
Default                                  : No
Forced                                   : No

Text #5
ID                                       : 7
Format                                   : ASS
Codec ID                                 : S_TEXT/ASS
Codec ID/Info                            : Advanced Sub Station Alpha
Duration                                 : 19 min 52 s
Bit rate                                 : 214 b/s
Count of elements                        : 363
Compression mode                         : Lossless
Stream size                              : 31.1 KiB (0%)
Title                                    : Arabic
Language                                 : Arabic
Default                                  : No
Forced                                   : No

Text #6
ID                                       : 8
Format                                   : ASS
Codec ID                                 : S_TEXT/ASS
Codec ID/Info                            : Advanced Sub Station Alpha
Duration                                 : 21 min 20 s
Bit rate                                 : 185 b/s
Count of elements                        : 387
Compression mode                         : Lossless
Stream size                              : 28.9 KiB (0%)
Title                                    : French
Language                                 : French
Default                                  : No
Forced                                   : No

Text #7
ID                                       : 9
Format                                   : ASS
Codec ID                                 : S_TEXT/ASS
Codec ID/Info                            : Advanced Sub Station Alpha
Duration                                 : 20 min 4 s
Bit rate                                 : 205 b/s
Count of elements                        : 377
Compression mode                         : Lossless
Stream size                              : 30.2 KiB (0%)
Title                                    : German
Language                                 : German
Default                                  : No
Forced                                   : No

Text #8
ID                                       : 10
Format                                   : ASS
Codec ID                                 : S_TEXT/ASS
Codec ID/Info                            : Advanced Sub Station Alpha
Duration                                 : 19 min 52 s
Bit rate                                 : 185 b/s
Count of elements                        : 383
Compression mode                         : Lossless
Stream size                              : 27.0 KiB (0%)
Title                                    : Italian
Language                                 : Italian
Default                                  : No
Forced                                   : No

Text #9
ID                                       : 11
Format                                   : ASS
Codec ID                                 : S_TEXT/ASS
Codec ID/Info                            : Advanced Sub Station Alpha
Duration                                 : 21 min 17 s
Bit rate                                 : 299 b/s
Count of elements                        : 399
Compression mode                         : Lossless
Stream size                              : 46.8 KiB (0%)
Title                                    : Russian
Language                                 : Russian
Default                                  : No
Forced                                   : No
beta
Anime DDL+NZB mirror
Current Time: 14/07/2024 16:18



About/FAQs

Discord