File Size156.4 MB (163,997,275 bytes)
DownloadAnonFiles | ClickNUpload | DownloadGG | KrakenFiles | MultiUp
  • BdUpload
  • DownAce
  • Fichier
  • FileCloud
  • Filerio
  • FilesCdn
  • IndiShare
  • Kbagi
  • Turbobit
  • UpToBox
  • Uppit
| ZippyShare
HashesCRC32: 92A31337, MD5: 2BBC735C771280DFB6DAE74D20EB3BC9, SHA1: 2A369ED43D516F5833768CBF00E5F7B24371C268, SHA256: 10F5E97E4E010D33CDB25B01F7C93B2FCAE2E1A9A3121F05C06E11D7634AD323, ED2K: CC2A476097531BC1C51C5B456A031E7D
Screenshots
screenshotscreenshotscreenshotscreenshotscreenshot
SubtitlesAll Attachments | Japanese (SDH) [jpn, SRT], Arabic [ara, SRT], Czech [cze, SRT], Danish [dan, SRT], German [ger, SRT], Greek [gre, SRT], English [eng, SRT], Spanish (Latin America) [spa, SRT], Spanish (Spain) [spa, SRT], Finnish [fin, SRT], Filipino [fil, SRT], French [fre, SRT], Hebrew [heb, SRT], Croatian [hrv, SRT], Hungarian [hun, SRT], Indonesian [ind, SRT], Italian [ita, SRT], Korean [kor, SRT], Malay [may, SRT], Norwegian Bokmål [nob, SRT], Dutch [dut, SRT], Polish [pol, SRT], Portuguese (Brazil) [por, SRT], Portuguese (Portugal) [por, SRT], Romanian [rum, SRT], Russian [rus, SRT], Swedish [swe, SRT], Thai [tha, SRT], Turkish [tur, SRT], Ukrainian [ukr, SRT], Vietnamese [vie, SRT], Chinese (Simplified) [chi, SRT], Chinese (Traditional) [chi, SRT]
Additional Info
General
Unique ID                                : 292673598532599864305617318669029220956 (0xDC2EE27DF6A6DB7E93D6D33A2DD8225C)
Complete name                            : [Valenciano] Komi-san wa, Komyushou Desu (Komi Can`t Communicate)  -S02E02 [1080p][AV1 10 bit][Opus][Multi-Sub].mkv
Format                                   : Matroska
Format version                           : Version 4
File size                                : 156 MiB
Duration                                 : 23 min 52 s
Overall bit rate                         : 916 kb/s
Encoded date                             : UTC 2022-05-04 12:21:03
Writing application                      : mkvmerge v64.0.0 ('Willows') 64-bit
Writing library                          : libebml v1.4.2 + libmatroska v1.6.3 / Lavf59.16.100

Video
ID                                       : 1
Format                                   : AV1
Format/Info                              : AOMedia Video 1
Format profile                           : Main@L4.0
Codec ID                                 : V_AV1
Duration                                 : 23 min 52 s
Bit rate                                 : 781 kb/s
Width                                    : 1 920 pixels
Height                                   : 1 080 pixels
Display aspect ratio                     : 16:9
Frame rate mode                          : Constant
Frame rate                               : 23.976 (24000/1001) FPS
Color space                              : YUV
Chroma subsampling                       : 4:2:0
Bit depth                                : 10 bits
Bits/(Pixel*Frame)                       : 0.016
Stream size                              : 133 MiB (85%)
Default                                  : Yes
Forced                                   : No
Color range                              : Limited

Audio
ID                                       : 2
Format                                   : AAC LC SBR
Format/Info                              : Advanced Audio Codec Low Complexity with Spectral Band Replication
Commercial name                          : HE-AAC
Format settings                          : Explicit
Codec ID                                 : A_AAC-2
Duration                                 : 23 min 52 s
Bit rate                                 : 128 kb/s
Channel(s)                               : 2 channels
Channel layout                           : L R
Sampling rate                            : 48.0 kHz
Frame rate                               : 23.438 FPS (2048 SPF)
Compression mode                         : Lossy
Stream size                              : 21.9 MiB (14%)
Title                                    : Japanese
Language                                 : Japanese
Default                                  : Yes
Forced                                   : No

Text #1
ID                                       : 3
Format                                   : UTF-8
Codec ID                                 : S_TEXT/UTF8
Codec ID/Info                            : UTF-8 Plain Text
Duration                                 : 23 min 46 s
Bit rate                                 : 109 b/s
Count of elements                        : 451
Stream size                              : 19.1 KiB (0%)
Title                                    : Japanese (SDH)
Language                                 : Japanese
Default                                  : No
Forced                                   : No

Text #2
ID                                       : 4
Format                                   : UTF-8
Codec ID                                 : S_TEXT/UTF8
Codec ID/Info                            : UTF-8 Plain Text
Duration                                 : 23 min 49 s
Bit rate                                 : 105 b/s
Count of elements                        : 395
Stream size                              : 18.3 KiB (0%)
Title                                    : Arabic
Language                                 : Arabic
Default                                  : No
Forced                                   : No

Text #3
ID                                       : 5
Format                                   : UTF-8
Codec ID                                 : S_TEXT/UTF8
Codec ID/Info                            : UTF-8 Plain Text
Duration                                 : 23 min 49 s
Bit rate                                 : 60 b/s
Count of elements                        : 390
Stream size                              : 10.6 KiB (0%)
Title                                    : Czech
Language                                 : Czech
Default                                  : No
Forced                                   : No

Text #4
ID                                       : 6
Format                                   : UTF-8
Codec ID                                 : S_TEXT/UTF8
Codec ID/Info                            : UTF-8 Plain Text
Duration                                 : 23 min 49 s
Bit rate                                 : 62 b/s
Count of elements                        : 390
Stream size                              : 10.9 KiB (0%)
Title                                    : Danish
Language                                 : Danish
Default                                  : No
Forced                                   : No

Text #5
ID                                       : 7
Format                                   : UTF-8
Codec ID                                 : S_TEXT/UTF8
Codec ID/Info                            : UTF-8 Plain Text
Duration                                 : 23 min 49 s
Bit rate                                 : 69 b/s
Count of elements                        : 392
Stream size                              : 12.1 KiB (0%)
Title                                    : German
Language                                 : German
Default                                  : No
Forced                                   : No

Text #6
ID                                       : 8
Format                                   : UTF-8
Codec ID                                 : S_TEXT/UTF8
Codec ID/Info                            : UTF-8 Plain Text
Duration                                 : 23 min 49 s
Bit rate                                 : 104 b/s
Count of elements                        : 390
Stream size                              : 18.3 KiB (0%)
Title                                    : Greek
Language                                 : Greek
Default                                  : No
Forced                                   : No

Text #7
ID                                       : 9
Format                                   : UTF-8
Codec ID                                 : S_TEXT/UTF8
Codec ID/Info                            : UTF-8 Plain Text
Duration                                 : 23 min 49 s
Bit rate                                 : 63 b/s
Count of elements                        : 393
Stream size                              : 11.1 KiB (0%)
Title                                    : English
Language                                 : English
Default                                  : Yes
Forced                                   : No

Text #8
ID                                       : 10
Format                                   : UTF-8
Codec ID                                 : S_TEXT/UTF8
Codec ID/Info                            : UTF-8 Plain Text
Duration                                 : 23 min 49 s
Bit rate                                 : 61 b/s
Count of elements                        : 391
Stream size                              : 10.8 KiB (0%)
Title                                    : Spanish (Latin America)
Language                                 : Spanish
Default                                  : No
Forced                                   : No

Text #9
ID                                       : 11
Format                                   : UTF-8
Codec ID                                 : S_TEXT/UTF8
Codec ID/Info                            : UTF-8 Plain Text
Duration                                 : 23 min 49 s
Bit rate                                 : 71 b/s
Count of elements                        : 391
Stream size                              : 12.4 KiB (0%)
Title                                    : Spanish (Spain)
Language                                 : Spanish
Default                                  : No
Forced                                   : No

Text #10
ID                                       : 12
Format                                   : UTF-8
Codec ID                                 : S_TEXT/UTF8
Codec ID/Info                            : UTF-8 Plain Text
Duration                                 : 23 min 49 s
Bit rate                                 : 63 b/s
Count of elements                        : 386
Stream size                              : 11.0 KiB (0%)
Title                                    : Finnish
Language                                 : Finnish
Default                                  : No
Forced                                   : No

Text #11
ID                                       : 13
Format                                   : UTF-8
Codec ID                                 : S_TEXT/UTF8
Codec ID/Info                            : UTF-8 Plain Text
Duration                                 : 23 min 49 s
Bit rate                                 : 60 b/s
Count of elements                        : 396
Stream size                              : 10.6 KiB (0%)
Title                                    : Filipino
Language                                 : fil
Default                                  : No
Forced                                   : No

Text #12
ID                                       : 14
Format                                   : UTF-8
Codec ID                                 : S_TEXT/UTF8
Codec ID/Info                            : UTF-8 Plain Text
Duration                                 : 23 min 49 s
Bit rate                                 : 67 b/s
Count of elements                        : 394
Stream size                              : 11.8 KiB (0%)
Title                                    : French
Language                                 : French
Default                                  : No
Forced                                   : No

Text #13
ID                                       : 15
Format                                   : UTF-8
Codec ID                                 : S_TEXT/UTF8
Codec ID/Info                            : UTF-8 Plain Text
Duration                                 : 23 min 49 s
Bit rate                                 : 89 b/s
Count of elements                        : 395
Stream size                              : 15.7 KiB (0%)
Title                                    : Hebrew
Language                                 : Hebrew
Default                                  : No
Forced                                   : No

Text #14
ID                                       : 16
Format                                   : UTF-8
Codec ID                                 : S_TEXT/UTF8
Codec ID/Info                            : UTF-8 Plain Text
Duration                                 : 23 min 49 s
Bit rate                                 : 60 b/s
Count of elements                        : 394
Stream size                              : 10.6 KiB (0%)
Title                                    : Croatian
Language                                 : Croatian
Default                                  : No
Forced                                   : No

Text #15
ID                                       : 17
Format                                   : UTF-8
Codec ID                                 : S_TEXT/UTF8
Codec ID/Info                            : UTF-8 Plain Text
Duration                                 : 23 min 49 s
Bit rate                                 : 62 b/s
Count of elements                        : 387
Stream size                              : 11.0 KiB (0%)
Title                                    : Hungarian
Language                                 : Hungarian
Default                                  : No
Forced                                   : No

Text #16
ID                                       : 18
Format                                   : UTF-8
Codec ID                                 : S_TEXT/UTF8
Codec ID/Info                            : UTF-8 Plain Text
Duration                                 : 23 min 49 s
Bit rate                                 : 66 b/s
Count of elements                        : 393
Stream size                              : 11.7 KiB (0%)
Title                                    : Indonesian
Language                                 : Indonesian
Default                                  : No
Forced                                   : No

Text #17
ID                                       : 19
Format                                   : UTF-8
Codec ID                                 : S_TEXT/UTF8
Codec ID/Info                            : UTF-8 Plain Text
Duration                                 : 23 min 49 s
Bit rate                                 : 61 b/s
Count of elements                        : 387
Stream size                              : 10.8 KiB (0%)
Title                                    : Italian
Language                                 : Italian
Default                                  : No
Forced                                   : No

Text #18
ID                                       : 20
Format                                   : UTF-8
Codec ID                                 : S_TEXT/UTF8
Codec ID/Info                            : UTF-8 Plain Text
Duration                                 : 23 min 49 s
Bit rate                                 : 79 b/s
Count of elements                        : 400
Stream size                              : 14.0 KiB (0%)
Title                                    : Korean
Language                                 : Korean
Default                                  : No
Forced                                   : No

Text #19
ID                                       : 21
Format                                   : UTF-8
Codec ID                                 : S_TEXT/UTF8
Codec ID/Info                            : UTF-8 Plain Text
Duration                                 : 23 min 49 s
Bit rate                                 : 67 b/s
Count of elements                        : 394
Stream size                              : 11.8 KiB (0%)
Title                                    : Malay
Language                                 : Malay
Default                                  : No
Forced                                   : No

Text #20
ID                                       : 22
Format                                   : UTF-8
Codec ID                                 : S_TEXT/UTF8
Codec ID/Info                            : UTF-8 Plain Text
Duration                                 : 23 min 49 s
Bit rate                                 : 60 b/s
Count of elements                        : 385
Stream size                              : 10.6 KiB (0%)
Title                                    : Norwegian Bokmål
Language                                 : Norwegian Bokmal
Default                                  : No
Forced                                   : No

Text #21
ID                                       : 23
Format                                   : UTF-8
Codec ID                                 : S_TEXT/UTF8
Codec ID/Info                            : UTF-8 Plain Text
Duration                                 : 23 min 49 s
Bit rate                                 : 56 b/s
Count of elements                        : 313
Stream size                              : 9.84 KiB (0%)
Title                                    : Dutch
Language                                 : Dutch
Default                                  : No
Forced                                   : No

Text #22
ID                                       : 24
Format                                   : UTF-8
Codec ID                                 : S_TEXT/UTF8
Codec ID/Info                            : UTF-8 Plain Text
Duration                                 : 23 min 49 s
Bit rate                                 : 67 b/s
Count of elements                        : 395
Stream size                              : 11.8 KiB (0%)
Title                                    : Polish
Language                                 : Polish
Default                                  : No
Forced                                   : No

Text #23
ID                                       : 25
Format                                   : UTF-8
Codec ID                                 : S_TEXT/UTF8
Codec ID/Info                            : UTF-8 Plain Text
Duration                                 : 23 min 49 s
Bit rate                                 : 60 b/s
Count of elements                        : 389
Stream size                              : 10.6 KiB (0%)
Title                                    : Portuguese (Brazil)
Language                                 : Portuguese
Default                                  : No
Forced                                   : No

Text #24
ID                                       : 26
Format                                   : UTF-8
Codec ID                                 : S_TEXT/UTF8
Codec ID/Info                            : UTF-8 Plain Text
Duration                                 : 23 min 49 s
Bit rate                                 : 66 b/s
Count of elements                        : 388
Stream size                              : 11.6 KiB (0%)
Title                                    : Portuguese (Portugal)
Language                                 : Portuguese
Default                                  : No
Forced                                   : No

Text #25
ID                                       : 27
Format                                   : UTF-8
Codec ID                                 : S_TEXT/UTF8
Codec ID/Info                            : UTF-8 Plain Text
Duration                                 : 23 min 49 s
Bit rate                                 : 71 b/s
Count of elements                        : 390
Stream size                              : 12.5 KiB (0%)
Title                                    : Romanian
Language                                 : Romanian
Default                                  : No
Forced                                   : No

Text #26
ID                                       : 28
Format                                   : UTF-8
Codec ID                                 : S_TEXT/UTF8
Codec ID/Info                            : UTF-8 Plain Text
Duration                                 : 23 min 49 s
Bit rate                                 : 102 b/s
Count of elements                        : 397
Stream size                              : 17.9 KiB (0%)
Title                                    : Russian
Language                                 : Russian
Default                                  : No
Forced                                   : No

Text #27
ID                                       : 29
Format                                   : UTF-8
Codec ID                                 : S_TEXT/UTF8
Codec ID/Info                            : UTF-8 Plain Text
Duration                                 : 23 min 49 s
Bit rate                                 : 62 b/s
Count of elements                        : 391
Stream size                              : 10.8 KiB (0%)
Title                                    : Swedish
Language                                 : Swedish
Default                                  : No
Forced                                   : No

Text #28
ID                                       : 30
Format                                   : UTF-8
Codec ID                                 : S_TEXT/UTF8
Codec ID/Info                            : UTF-8 Plain Text
Duration                                 : 23 min 49 s
Bit rate                                 : 152 b/s
Count of elements                        : 395
Stream size                              : 26.6 KiB (0%)
Title                                    : Thai
Language                                 : Thai
Default                                  : No
Forced                                   : No

Text #29
ID                                       : 31
Format                                   : UTF-8
Codec ID                                 : S_TEXT/UTF8
Codec ID/Info                            : UTF-8 Plain Text
Duration                                 : 23 min 49 s
Bit rate                                 : 63 b/s
Count of elements                        : 389
Stream size                              : 11.1 KiB (0%)
Title                                    : Turkish
Language                                 : Turkish
Default                                  : No
Forced                                   : No

Text #30
ID                                       : 32
Format                                   : UTF-8
Codec ID                                 : S_TEXT/UTF8
Codec ID/Info                            : UTF-8 Plain Text
Duration                                 : 23 min 49 s
Bit rate                                 : 100 b/s
Count of elements                        : 394
Stream size                              : 17.6 KiB (0%)
Title                                    : Ukrainian
Language                                 : Ukrainian
Default                                  : No
Forced                                   : No

Text #31
ID                                       : 33
Format                                   : UTF-8
Codec ID                                 : S_TEXT/UTF8
Codec ID/Info                            : UTF-8 Plain Text
Duration                                 : 23 min 49 s
Bit rate                                 : 97 b/s
Count of elements                        : 395
Stream size                              : 17.1 KiB (0%)
Title                                    : Vietnamese
Language                                 : Vietnamese
Default                                  : No
Forced                                   : No

Text #32
ID                                       : 34
Format                                   : UTF-8
Codec ID                                 : S_TEXT/UTF8
Codec ID/Info                            : UTF-8 Plain Text
Duration                                 : 23 min 49 s
Bit rate                                 : 69 b/s
Count of elements                        : 393
Stream size                              : 12.1 KiB (0%)
Title                                    : Chinese (Simplified)
Language                                 : Chinese
Default                                  : No
Forced                                   : No

Text #33
ID                                       : 35
Format                                   : UTF-8
Codec ID                                 : S_TEXT/UTF8
Codec ID/Info                            : UTF-8 Plain Text
Duration                                 : 23 min 49 s
Bit rate                                 : 70 b/s
Count of elements                        : 392
Stream size                              : 12.2 KiB (0%)
Title                                    : Chinese (Traditional)
Language                                 : Chinese
Default                                  : No
Forced                                   : No

Menu
00:00:00.000                             : en:Part 01
00:00:40.500                             : en:Intro
00:02:08.250                             : en:Part 02
00:23:50.450                             : en:Credits
beta
Anime DDL+NZB mirror
Current Time: 09/08/2022 02:09



About/FAQs

Discord