File Size442.8 MB (464,359,164 bytes)
DownloadAnonFiles | ClickNUpload | DropAPK | Free | MultiUp
  • BdUpload
  • DownAce
  • Fichier
  • FileCloud
  • Filerio
  • FilesCdn
  • IndiShare
  • Kbagi
  • Turbobit
  • UpToBox
  • Uppit
| SolidFiles | ZippyShare
HashesCRC32: C44142E6, MD5: 3B98EC16C328A757327585D1BD9638FD, SHA1: D188BC2D1D1533CDCBAC2AFE09C3A0253EFF8BE9, SHA256: 64D7E509A2B2E63FD7EAB0EA47DF5C312F0DDD341A3A13D2B2A7BB5972DA9FB7, ED2K: 37641A79BC184C54BA4A6DC64E1A254B
Screenshots
screenshotscreenshotscreenshotscreenshotscreenshot
SubtitlesAll Attachments | English(US) [eng, ASS], Arabic [ara, ASS], Francais(France) [fre, ASS], Deutsch [ger, ASS], Italiano [ita, ASS], Espanol(Espana) [spa, ASS], Espanol [spa, ASS], Portugues(Brasil) [por, ASS], Russian [rus, ASS]
Additional Info
General
Unique ID                                : 172004185252106933406227933558629472506 (0x8166CD1479FA431926C52AF64A3818FA)
Complete name                            : [USD] Ore dake Haireru Kakushi Dungeon - S01E02 [1080p HEVC 10bits][AAC][Multi-Subtitles].mkv
Format                                   : Matroska
Format version                           : Version 4
File size                                : 443 MiB
Duration                                 : 24 min 27 s
Overall bit rate                         : 2 532 kb/s
Writing application                      : Lavf58.49.100
Writing library                          : Lavf58.49.100
Copyright                                : Luxury
ErrorDetectionType                       : Per level 1
Attachments                              : Arial_0.ttf / calibri.ttf / comic_0.ttf / georgia_0.ttf / impact_0.ttf / Tahoma_0.ttf / times_0.ttf / trebuc_0.ttf / verdana_0.ttf / AdobeArabic-Bold.otf

Video
ID                                       : 1
Format                                   : HEVC
Format/Info                              : High Efficiency Video Coding
Format profile                           : Main 10@L4@Main
Codec ID                                 : V_MPEGH/ISO/HEVC
Duration                                 : 24 min 26 s
Bit rate                                 : 7 972 kb/s
Width                                    : 1 920 pixels
Height                                   : 1 080 pixels
Display aspect ratio                     : 16:9
Frame rate mode                          : Constant
Frame rate                               : 23.976 (24000/1001) FPS
Color space                              : YUV
Chroma subsampling                       : 4:2:0
Bit depth                                : 10 bits
Bits/(Pixel*Frame)                       : 0.160
Stream size                              : 1.36 GiB
Writing library                          : Lavc58.98.100 hevc_nvenc
Language                                 : Japanese
Default                                  : Yes
Forced                                   : No
Color range                              : Full

Audio
ID                                       : 2
Format                                   : AAC LC
Format/Info                              : Advanced Audio Codec Low Complexity
Codec ID                                 : A_AAC-2
Duration                                 : 24 min 27 s
Bit rate                                 : 128 kb/s
Channel(s)                               : 2 channels
Channel layout                           : L R
Sampling rate                            : 44.1 kHz
Frame rate                               : 43.066 FPS (1024 SPF)
Compression mode                         : Lossy
Stream size                              : 22.4 MiB (5%)
Language                                 : Japanese
Default                                  : Yes
Forced                                   : No

Text #1
ID                                       : 3
Format                                   : ASS
Codec ID                                 : S_TEXT/ASS
Codec ID/Info                            : Advanced Sub Station Alpha
Duration                                 : 24 min 26 s
Bit rate                                 : 162 b/s
Count of elements                        : 378
Compression mode                         : Lossless
Stream size                              : 28.9 KiB (0%)
Title                                    : English(US)
Language                                 : English
Default                                  : Yes
Forced                                   : No

Text #2
ID                                       : 4
Format                                   : ASS
Codec ID                                 : S_TEXT/ASS
Codec ID/Info                            : Advanced Sub Station Alpha
Duration                                 : 24 min 26 s
Bit rate                                 : 191 b/s
Count of elements                        : 383
Compression mode                         : Lossless
Stream size                              : 34.1 KiB (0%)
Title                                    : Arabic
Language                                 : Arabic
Default                                  : No
Forced                                   : No

Text #3
ID                                       : 5
Format                                   : ASS
Codec ID                                 : S_TEXT/ASS
Codec ID/Info                            : Advanced Sub Station Alpha
Duration                                 : 24 min 20 s
Bit rate                                 : 163 b/s
Count of elements                        : 367
Compression mode                         : Lossless
Stream size                              : 29.1 KiB (0%)
Title                                    : Francais(France)
Language                                 : French
Default                                  : No
Forced                                   : No

Text #4
ID                                       : 6
Format                                   : ASS
Codec ID                                 : S_TEXT/ASS
Codec ID/Info                            : Advanced Sub Station Alpha
Duration                                 : 24 min 26 s
Bit rate                                 : 172 b/s
Count of elements                        : 399
Compression mode                         : Lossless
Stream size                              : 30.7 KiB (0%)
Title                                    : Deutsch
Language                                 : German
Default                                  : No
Forced                                   : No

Text #5
ID                                       : 7
Format                                   : ASS
Codec ID                                 : S_TEXT/ASS
Codec ID/Info                            : Advanced Sub Station Alpha
Duration                                 : 24 min 26 s
Bit rate                                 : 167 b/s
Count of elements                        : 375
Compression mode                         : Lossless
Stream size                              : 29.8 KiB (0%)
Title                                    : Italiano
Language                                 : Italian
Default                                  : No
Forced                                   : No

Text #6
ID                                       : 8
Format                                   : ASS
Codec ID                                 : S_TEXT/ASS
Codec ID/Info                            : Advanced Sub Station Alpha
Duration                                 : 24 min 26 s
Bit rate                                 : 150 b/s
Count of elements                        : 357
Compression mode                         : Lossless
Stream size                              : 26.8 KiB (0%)
Title                                    : Espanol(Espana)
Language                                 : Spanish
Default                                  : No
Forced                                   : No

Text #7
ID                                       : 9
Format                                   : ASS
Codec ID                                 : S_TEXT/ASS
Codec ID/Info                            : Advanced Sub Station Alpha
Duration                                 : 24 min 26 s
Bit rate                                 : 151 b/s
Count of elements                        : 359
Compression mode                         : Lossless
Stream size                              : 27.0 KiB (0%)
Title                                    : Espanol
Language                                 : Spanish
Default                                  : No
Forced                                   : No

Text #8
ID                                       : 10
Format                                   : ASS
Codec ID                                 : S_TEXT/ASS
Codec ID/Info                            : Advanced Sub Station Alpha
Duration                                 : 24 min 26 s
Bit rate                                 : 162 b/s
Count of elements                        : 377
Compression mode                         : Lossless
Stream size                              : 28.9 KiB (0%)
Title                                    : Portugues(Brasil)
Language                                 : Portuguese
Default                                  : No
Forced                                   : No

Text #9
ID                                       : 11
Format                                   : ASS
Codec ID                                 : S_TEXT/ASS
Codec ID/Info                            : Advanced Sub Station Alpha
Duration                                 : 24 min 21 s
Bit rate                                 : 200 b/s
Count of elements                        : 381
Compression mode                         : Lossless
Stream size                              : 35.5 KiB (0%)
Title                                    : Russian
Language                                 : Russian
Default                                  : No
Forced                                   : No
beta
Anime DDL+NZB mirror
Current Time: 20/04/2021 14:27



About/FAQs