[USD] Haikyuu!! To The Top - S02E12 [END][1080p HEVC 10bits][AAC][Eng-Subtitles].mkv


File Size409.2 MB (429,102,129 bytes)
DownloadAnonFiles | ClickNUpload | DropAPK | Free | MultiUp
  • BdUpload
  • DownAce
  • Fichier
  • FileCloud
  • Filerio
  • FilesCdn
  • IndiShare
  • Kbagi
  • Turbobit
  • UpToBox
  • Uppit
| SolidFiles | ZippyShare
HashesCRC32: 21E01692, MD5: 5FE9AD4D11AE9679C77D3185BF5BC312, SHA1: 08566DA1853E08FDE3E50B9EEC0AAB915365C206, SHA256: 5D40D9AF526CB9F693DC5F3DA23A70D47FCE2B040CA3E8A5D5C8CDB73DF26677, ED2K: F466C88EB8C5C1CE294A75165548A040
Screenshots
screenshotscreenshotscreenshotscreenshotscreenshot
SubtitlesAll Attachments | English subs [eng, ASS]
Additional Info
General
Unique ID                                : 113718259655730385090323039038550806702 (0x558D571408EB506096F1F5955F2F90AE)
Complete name                            : [USD] Haikyuu!! To The Top - S02E12 [END][1080p HEVC 10bits][AAC][Eng-Subtitles].mkv
Format                                   : Matroska
Format version                           : Version 4
File size                                : 409 MiB
Duration                                 : 23 min 57 s
Overall bit rate                         : 2 389 kb/s
Writing application                      : Lavf58.49.100
Writing library                          : Lavf58.49.100
Copyright                                : Luxury
ErrorDetectionType                       : Per level 1
Attachments                              : Roboto-Medium.ttf / Roboto-MediumItalic.ttf / arial.ttf / arialbd.ttf / comic.ttf / comicbd.ttf / times.ttf / timesbd.ttf / trebuc.ttf / trebucbd.ttf / verdana.ttf / verdanab.ttf

Video
ID                                       : 1
Format                                   : HEVC
Format/Info                              : High Efficiency Video Coding
Format profile                           : Main 10@L4@Main
Codec ID                                 : V_MPEGH/ISO/HEVC
Duration                                 : 23 min 57 s
Bit rate                                 : 7 992 kb/s
Width                                    : 1 920 pixels
Height                                   : 1 080 pixels
Display aspect ratio                     : 16:9
Frame rate mode                          : Constant
Frame rate                               : 23.976 (24000/1001) FPS
Color space                              : YUV
Chroma subsampling                       : 4:2:0
Bit depth                                : 10 bits
Bits/(Pixel*Frame)                       : 0.161
Stream size                              : 1.34 GiB
Writing library                          : Lavc58.98.100 hevc_nvenc
Default                                  : Yes
Forced                                   : No
Color range                              : Full

Audio
ID                                       : 2
Format                                   : AAC LC
Format/Info                              : Advanced Audio Codec Low Complexity
Codec ID                                 : A_AAC-2
Duration                                 : 23 min 57 s
Bit rate                                 : 128 kb/s
Channel(s)                               : 2 channels
Channel layout                           : L R
Sampling rate                            : 44.1 kHz
Frame rate                               : 43.066 FPS (1024 SPF)
Compression mode                         : Lossy
Stream size                              : 21.9 MiB (5%)
Language                                 : Japanese
Default                                  : Yes
Forced                                   : No

Text
ID                                       : 3
Format                                   : ASS
Codec ID                                 : S_TEXT/ASS
Codec ID/Info                            : Advanced Sub Station Alpha
Duration                                 : 23 min 56 s
Bit rate                                 : 129 b/s
Count of elements                        : 337
Compression mode                         : Lossless
Stream size                              : 22.5 KiB (0%)
Title                                    : English subs
Language                                 : English
Default                                  : Yes
Forced                                   : No
beta
Anime DDL+NZB mirror
Current Time: 03/12/2021 13:34



About/FAQs

Discord