Undead.Unluck.S01E23.A.Story.I.Wont.See.Coming.1080p.mkv


File Size567.0 MB (594,543,867 bytes)
DownloadClickNUpload | DailyUploads | GoFile | KrakenFiles | MdiaLoad | Uppit
MultiUp: Part1
  • BdUpload
  • DownAce
  • Fichier
  • FileCloud
  • Filerio
  • FilesCdn
  • IndiShare
  • Kbagi
  • Turbobit
  • UpToBox
  • Uppit
, Part2
  • BdUpload
  • DownAce
  • Fichier
  • FileCloud
  • Filerio
  • FilesCdn
  • IndiShare
  • Kbagi
  • Turbobit
  • UpToBox
  • Uppit
HashesCRC32: 8AC3437A, MD5: BC81E63013D541CF903C5F9CA09363CE, SHA1: 695E83E2DC67178470E669A5FC5911392C08212B, SHA256: 0A1DA4F4F028F190DD47D8F6E78D03C7F9AF204D097D59B7FF63965DA3179EF0, ED2K: 403D945C385B82293967157F1DDACF26
Screenshots
screenshotscreenshotscreenshotscreenshotscreenshot
SubtitlesAll Attachments | Forced [eng, SRT], eng [SRT], SDH [eng, SRT]
Additional Info
General
Unique ID                                : 276012894018588261753847526879317443658 (0xCFA62656D9CDBF2AD2F0E639C593C44A)
Complete name                            : Undead.Unluck.S01E23.A.Story.I.Wont.See.Coming.1080p.mkv
Format                                   : Matroska
Format version                           : Version 4
File size                                : 567 MiB
Duration                                 : 23 min 46 s
Overall bit rate                         : 3 335 kb/s
Frame rate                               : 23.976 FPS
Encoded date                             : 2024-05-15 13:41:34 UTC
Writing application                      : mkvmerge v84.0 ('Sleeper') 64-bit
Writing library                          : libebml v1.4.5 + libmatroska v1.7.1

Video
ID                                       : 1
Format                                   : AVC
Format/Info                              : Advanced Video Codec
Format profile                           : High@L4
Format settings                          : CABAC / 4 Ref Frames
Format settings, CABAC                   : Yes
Format settings, Reference frames        : 4 frames
Codec ID                                 : V_MPEG4/ISO/AVC
Duration                                 : 23 min 46 s
Bit rate                                 : 3 208 kb/s
Width                                    : 1 920 pixels
Height                                   : 1 080 pixels
Display aspect ratio                     : 16:9
Frame rate mode                          : Constant
Frame rate                               : 23.976 (24000/1001) FPS
Color space                              : YUV
Chroma subsampling                       : 4:2:0
Bit depth                                : 8 bits
Scan type                                : Progressive
Bits/(Pixel*Frame)                       : 0.065
Stream size                              : 545 MiB (96%)
Default                                  : Yes
Forced                                   : No

Audio
ID                                       : 2
Format                                   : AAC LC
Format/Info                              : Advanced Audio Codec Low Complexity
Codec ID                                 : A_AAC-2
Duration                                 : 23 min 34 s
Bit rate                                 : 125 kb/s
Channel(s)                               : 2 channels
Channel layout                           : L R
Sampling rate                            : 48.0 kHz
Frame rate                               : 46.875 FPS (1024 SPF)
Compression mode                         : Lossy
Stream size                              : 21.1 MiB (4%)
Language                                 : English
Default                                  : No
Forced                                   : No

Text #1
ID                                       : 3
Format                                   : UTF-8
Codec ID                                 : S_TEXT/UTF8
Codec ID/Info                            : UTF-8 Plain Text
Duration                                 : 21 min 56 s
Bit rate                                 : 3 b/s
Frame rate                               : 0.014 FPS
Count of elements                        : 19
Stream size                              : 504 Bytes (0%)
Title                                    : Forced
Language                                 : English
Default                                  : No
Forced                                   : Yes

Text #2
ID                                       : 4
Format                                   : UTF-8
Codec ID                                 : S_TEXT/UTF8
Codec ID/Info                            : UTF-8 Plain Text
Duration                                 : 23 min 17 s
Bit rate                                 : 78 b/s
Frame rate                               : 0.296 FPS
Count of elements                        : 413
Stream size                              : 13.5 KiB (0%)
Language                                 : English
Default                                  : Yes
Forced                                   : No

Text #3
ID                                       : 5
Format                                   : UTF-8
Codec ID                                 : S_TEXT/UTF8
Codec ID/Info                            : UTF-8 Plain Text
Duration                                 : 23 min 25 s
Bit rate                                 : 89 b/s
Frame rate                               : 0.359 FPS
Count of elements                        : 505
Stream size                              : 15.3 KiB (0%)
Title                                    : SDH
Language                                 : English
Default                                  : No
Forced                                   : No

Menu
00:00:00.000                             : en:Scene 1
00:01:19.997                             : en:Intro
00:02:50.003                             : en:Scene 3
00:11:52.045                             : en:Scene 4
00:15:28.887                             : en:Scene 5
00:18:40.245                             : en:Credits
beta
Anime DDL+NZB mirror
Current Time: 14/06/2024 19:53



About/FAQs

Discord