Tunshi Xingkong - 112 (2160p HQ) [AX-Corrected-v2].mkv


File Size1.510 GB (1,621,327,664 bytes)
DownloadClickNUpload | GoFile | MdiaLoad
DailyUploads: Part1, Part2
DownloadGG: Part1, Part2
KrakenFiles: Part1, Part2
MultiUp: Part1
  • BdUpload
  • DownAce
  • Fichier
  • FileCloud
  • Filerio
  • FilesCdn
  • IndiShare
  • Kbagi
  • Turbobit
  • UpToBox
  • Uppit
, Part2
  • BdUpload
  • DownAce
  • Fichier
  • FileCloud
  • Filerio
  • FilesCdn
  • IndiShare
  • Kbagi
  • Turbobit
  • UpToBox
  • Uppit
, Part3
  • BdUpload
  • DownAce
  • Fichier
  • FileCloud
  • Filerio
  • FilesCdn
  • IndiShare
  • Kbagi
  • Turbobit
  • UpToBox
  • Uppit
, Part4
  • BdUpload
  • DownAce
  • Fichier
  • FileCloud
  • Filerio
  • FilesCdn
  • IndiShare
  • Kbagi
  • Turbobit
  • UpToBox
  • Uppit

Uppit: Part1, Part2
HashesCRC32: 5C2BAB88, MD5: AF9DE5D27EE7FAE9353185FC6168667F, SHA1: AD0954FACEA24578E2D19003A8D478CB5F7AA67A, SHA256: F302A8D104205982A78E26D61B7DFDF09B19CF799344FE8ADA0E58C56B8657EB, ED2K: 53FC38D8AC55F9B24804C37FA6C5F8B0
Screenshots
screenshotscreenshotscreenshotscreenshotscreenshot
SubtitlesAll Attachments | eng [ASS]
Additional Info
General
Unique ID                                : 311249114587371242509904038929776806230 (0xEA28662485A93EF9A1C81660F88C8956)
Complete name                            : Tunshi Xingkong - 112 (2160p HQ) [AX-Corrected-v2].mkv
Format                                   : Matroska
Format version                           : Version 4
File size                                : 1.51 GiB
Duration                                 : 22 min 33 s
Overall bit rate                         : 9 580 kb/s
Frame rate                               : 30.000 FPS
Encoded date                             : 2024-04-09 02:49:11 UTC
Writing application                      : mkvmerge v83.0 ('Circle Of Friends') 64-bit
Writing library                          : libebml v1.4.5 + libmatroska v1.7.1

Video
ID                                       : 1
Format                                   : HEVC
Format/Info                              : High Efficiency Video Coding
Format profile                           : Main 10@L5@Main
Codec ID                                 : V_MPEGH/ISO/HEVC
Duration                                 : 22 min 33 s
Bit rate                                 : 9 483 kb/s
Width                                    : 3 840 pixels
Height                                   : 2 160 pixels
Display aspect ratio                     : 16:9
Frame rate mode                          : Variable
Frame rate                               : 30.000 FPS
Color space                              : YUV
Chroma subsampling                       : 4:2:0
Bit depth                                : 10 bits
Bits/(Pixel*Frame)                       : 0.038
Stream size                              : 1.49 GiB (99%)
Default                                  : Yes
Forced                                   : No
Color range                              : Limited
Color primaries                          : BT.709
Transfer characteristics                 : BT.709
Matrix coefficients                      : BT.709

Audio
ID                                       : 2
Format                                   : AAC LC
Format/Info                              : Advanced Audio Codec Low Complexity
Codec ID                                 : A_AAC-2
Duration                                 : 22 min 33 s
Bit rate                                 : 93.4 kb/s
Channel(s)                               : 2 channels
Channel layout                           : L R
Sampling rate                            : 48.0 kHz
Frame rate                               : 46.875 FPS (1024 SPF)
Compression mode                         : Lossy
Stream size                              : 15.1 MiB (1%)
Language                                 : Chinese
Default                                  : Yes
Forced                                   : No

Text
ID                                       : 3
Format                                   : ASS
Codec ID                                 : S_TEXT/ASS
Codec ID/Info                            : Advanced Sub Station Alpha
Duration                                 : 21 min 52 s
Bit rate                                 : 104 b/s
Frame rate                               : 0.215 FPS
Count of elements                        : 282
Compression mode                         : Lossless
Stream size                              : 16.7 KiB (0%)
Language                                 : English
Default                                  : Yes
Forced                                   : No

Menu
00:00:00.000                             : Opening
00:02:22.800                             : Previously
00:02:54.000                             : Episode 112
00:19:23.400                             : Advertisements
00:19:52.800                             : Ending
00:21:57.700                             : Preview
beta
Anime DDL+NZB mirror
Current Time: 17/06/2024 22:28



About/FAQs

Discord