Tunshi Xingkong - 106 (2160p) [AX-Corrected-v2].mkv


File Size1.395 GB (1,497,563,868 bytes)
DownloadClickNUpload | GoFile | MdiaLoad
DailyUploads: Part1, Part2
DownloadGG: Part1, Part2
KrakenFiles: Part1, Part2
MultiUp: Part1
  • BdUpload
  • DownAce
  • Fichier
  • FileCloud
  • Filerio
  • FilesCdn
  • IndiShare
  • Kbagi
  • Turbobit
  • UpToBox
  • Uppit
, Part2
  • BdUpload
  • DownAce
  • Fichier
  • FileCloud
  • Filerio
  • FilesCdn
  • IndiShare
  • Kbagi
  • Turbobit
  • UpToBox
  • Uppit
, Part3
  • BdUpload
  • DownAce
  • Fichier
  • FileCloud
  • Filerio
  • FilesCdn
  • IndiShare
  • Kbagi
  • Turbobit
  • UpToBox
  • Uppit

Uppit: Part1, Part2
HashesCRC32: 3C9B9712, MD5: CD6941F9CECC5896FEA1A7DACEE38F3E, SHA1: 234A45346631DE04BB0B2D3BC1DCD70CD3D84203, SHA256: BC80E246773962B5D1E04DE636690D94DCBC96FD923AFE86653C53F7087B6447, ED2K: B06BDCB152FE7052CA74BD4F12397AC0
Screenshots
screenshotscreenshotscreenshotscreenshotscreenshot
SubtitlesAll Attachments | eng [ASS]
Additional Info
General
Unique ID                                : 60291503985269741086325159787539486252 (0x2D5BB8A69346BBD279928C9ED540562C)
Complete name                            : Tunshi Xingkong - 106 (2160p) [AX-Corrected-v2].mkv
Format                                   : Matroska
Format version                           : Version 4
File size                                : 1.39 GiB
Duration                                 : 21 min 29 s
Overall bit rate                         : 9 289 kb/s
Frame rate                               : 30.000 FPS
Encoded date                             : 2024-02-19 19:43:08 UTC
Writing application                      : mkvmerge v82.0 ('I'm The President') 64-bit
Writing library                          : libebml v1.4.5 + libmatroska v1.7.1

Video
ID                                       : 1
Format                                   : HEVC
Format/Info                              : High Efficiency Video Coding
Format profile                           : Main 10@L5@Main
Codec ID                                 : V_MPEGH/ISO/HEVC
Duration                                 : 21 min 29 s
Bit rate                                 : 9 192 kb/s
Width                                    : 3 840 pixels
Height                                   : 2 160 pixels
Display aspect ratio                     : 16:9
Frame rate mode                          : Variable
Frame rate                               : 30.000 FPS
Color space                              : YUV
Chroma subsampling                       : 4:2:0
Bit depth                                : 10 bits
Bits/(Pixel*Frame)                       : 0.037
Stream size                              : 1.38 GiB (99%)
Default                                  : Yes
Forced                                   : No
Color range                              : Limited
Color primaries                          : BT.709
Transfer characteristics                 : BT.709
Matrix coefficients                      : BT.709

Audio
ID                                       : 2
Format                                   : AAC LC
Format/Info                              : Advanced Audio Codec Low Complexity
Codec ID                                 : A_AAC-2
Duration                                 : 21 min 29 s
Bit rate                                 : 93.4 kb/s
Channel(s)                               : 2 channels
Channel layout                           : L R
Sampling rate                            : 48.0 kHz
Frame rate                               : 46.875 FPS (1024 SPF)
Compression mode                         : Lossy
Stream size                              : 14.4 MiB (1%)
Language                                 : Chinese
Default                                  : Yes
Forced                                   : No

Text
ID                                       : 3
Format                                   : ASS
Codec ID                                 : S_TEXT/ASS
Codec ID/Info                            : Advanced Sub Station Alpha
Duration                                 : 20 min 48 s
Bit rate                                 : 129 b/s
Frame rate                               : 0.272 FPS
Count of elements                        : 340
Compression mode                         : Lossless
Stream size                              : 19.8 KiB (0%)
Language                                 : English
Default                                  : Yes
Forced                                   : No

Menu
00:00:00.000                             : Opening
00:02:25.500                             : Previously
00:02:55.200                             : Episode 106
00:18:19.000                             : Advertisements
00:18:48.600                             : Ending
00:20:53.400                             : Preview
beta
Anime DDL+NZB mirror
Current Time: 17/06/2024 23:44



About/FAQs

Discord