Tunshi Xingkong - 098 (2160p) [AX-Corrected-v2].mkv


File Size1.417 GB (1,521,134,875 bytes)
DownloadClickNUpload | GoFile | MdiaLoad
DailyUploads: Part1, Part2
DownloadGG: Part1, Part2
KrakenFiles: Part1, Part2
MultiUp: Part1
  • BdUpload
  • DownAce
  • Fichier
  • FileCloud
  • Filerio
  • FilesCdn
  • IndiShare
  • Kbagi
  • Turbobit
  • UpToBox
  • Uppit
, Part2
  • BdUpload
  • DownAce
  • Fichier
  • FileCloud
  • Filerio
  • FilesCdn
  • IndiShare
  • Kbagi
  • Turbobit
  • UpToBox
  • Uppit
, Part3
  • BdUpload
  • DownAce
  • Fichier
  • FileCloud
  • Filerio
  • FilesCdn
  • IndiShare
  • Kbagi
  • Turbobit
  • UpToBox
  • Uppit

Uppit: Part1, Part2
HashesCRC32: 3CBDF158, MD5: 6B8B560774594BEA3F4F3753234D387E, SHA1: BDCC97115717EAC4BED427E156D56609C563C149, SHA256: 7DD132E3DD175CC3A68A67A96FE5EEABBEC6B88647A98A4B0696A08751ED65E0, ED2K: 6A1EC020A00724E5491A2415F750E02F
Screenshots
screenshotscreenshotscreenshotscreenshotscreenshot
SubtitlesAll Attachments | chi [ASS]
Additional Info
General
Unique ID                                : 68543336701575412739948523665816623349 (0x3390F76A324592CA3C88F6BC083918F5)
Complete name                            : Tunshi Xingkong - 098 (2160p) [AX-Corrected-v2].mkv
Format                                   : Matroska
Format version                           : Version 4
File size                                : 1.42 GiB
Duration                                 : 21 min 54 s
Overall bit rate                         : 9 261 kb/s
Frame rate                               : 30.000 FPS
Encoded date                             : 2023-12-27 06:33:10 UTC
Writing application                      : mkvmerge v79.0 ('Funeral Pyres') 64-bit
Writing library                          : libebml v1.4.4 + libmatroska v1.7.1

Video
ID                                       : 1
Format                                   : HEVC
Format/Info                              : High Efficiency Video Coding
Format profile                           : Main 10@L5@Main
Codec ID                                 : V_MPEGH/ISO/HEVC
Duration                                 : 21 min 53 s
Bit rate                                 : 9 164 kb/s
Width                                    : 3 840 pixels
Height                                   : 2 160 pixels
Display aspect ratio                     : 16:9
Frame rate mode                          : Variable
Frame rate                               : 30.000 FPS
Color space                              : YUV
Chroma subsampling                       : 4:2:0
Bit depth                                : 10 bits
Bits/(Pixel*Frame)                       : 0.037
Stream size                              : 1.40 GiB (99%)
Default                                  : Yes
Forced                                   : No
Color range                              : Limited
Color primaries                          : BT.709
Transfer characteristics                 : BT.709
Matrix coefficients                      : BT.709

Audio
ID                                       : 2
Format                                   : AAC LC
Format/Info                              : Advanced Audio Codec Low Complexity
Codec ID                                 : A_AAC-2
Duration                                 : 21 min 53 s
Bit rate                                 : 93.4 kb/s
Channel(s)                               : 2 channels
Channel layout                           : L R
Sampling rate                            : 48.0 kHz
Frame rate                               : 46.875 FPS (1024 SPF)
Compression mode                         : Lossy
Delay relative to video                  : -133 ms
Stream size                              : 14.6 MiB (1%)
Language                                 : Chinese
Default                                  : Yes
Forced                                   : No

Text
ID                                       : 3
Format                                   : ASS
Codec ID                                 : S_TEXT/ASS
Codec ID/Info                            : Advanced Sub Station Alpha
Duration                                 : 21 min 12 s
Bit rate                                 : 176 b/s
Frame rate                               : 0.336 FPS
Count of elements                        : 428
Compression mode                         : Lossless
Stream size                              : 27.4 KiB (0%)
Language                                 : Chinese
Default                                  : Yes
Forced                                   : No

Menu
00:00:00.000                             : Opening
00:02:25.500                             : Previously
00:02:56.200                             : Episode 98
00:18:43.500                             : Advertisements
00:19:13.100                             : Ending
00:21:18.000                             : Preview
beta
Anime DDL+NZB mirror
Current Time: 17/06/2024 23:30



About/FAQs

Discord