Tunshi Xingkong - 091 (2160p) [AX-Corrected-v2].mkv


File Size1.420 GB (1,524,844,441 bytes)
DownloadClickNUpload | GoFile | MdiaLoad
DailyUploads: Part1, Part2
DownloadGG: Part1, Part2
KrakenFiles: Part1, Part2
MultiUp: Part1
  • BdUpload
  • DownAce
  • Fichier
  • FileCloud
  • Filerio
  • FilesCdn
  • IndiShare
  • Kbagi
  • Turbobit
  • UpToBox
  • Uppit
, Part2
  • BdUpload
  • DownAce
  • Fichier
  • FileCloud
  • Filerio
  • FilesCdn
  • IndiShare
  • Kbagi
  • Turbobit
  • UpToBox
  • Uppit
, Part3
  • BdUpload
  • DownAce
  • Fichier
  • FileCloud
  • Filerio
  • FilesCdn
  • IndiShare
  • Kbagi
  • Turbobit
  • UpToBox
  • Uppit

Uppit: Part1, Part2
HashesCRC32: EEE0416C, MD5: 091D6496DABBD28F5FC19B1B0FA1B86F, SHA1: 04C257CC2DA7478BDBE0E2297C14BCC6924F36FF, SHA256: FF1A832879FF73ACA676FDD3E4327CA2962EA701ECF07AFED069063755E5DBD8, ED2K: EE98DD79D0CF3ECA6F65727C7DBCB493
Screenshots
screenshotscreenshotscreenshotscreenshotscreenshot
SubtitlesAll Attachments | eng [ASS]
Additional Info
General
Unique ID                                : 318347872800154755861785553693095292551 (0xEF7F91F1CC09593A23C139556424EE87)
Complete name                            : Tunshi Xingkong - 091 (2160p) [AX-Corrected-v2].mkv
Format                                   : Matroska
Format version                           : Version 4
File size                                : 1.42 GiB
Duration                                 : 21 min 52 s
Overall bit rate                         : 9 297 kb/s
Frame rate                               : 30.000 FPS
Encoded date                             : 2023-11-03 17:04:22 UTC
Writing application                      : mkvmerge v79.0 ('Funeral Pyres') 64-bit
Writing library                          : libebml v1.4.4 + libmatroska v1.7.1

Video
ID                                       : 1
Format                                   : HEVC
Format/Info                              : High Efficiency Video Coding
Format profile                           : Main 10@L5@Main
Codec ID                                 : V_MPEGH/ISO/HEVC
Duration                                 : 21 min 52 s
Bit rate                                 : 9 200 kb/s
Width                                    : 3 840 pixels
Height                                   : 2 160 pixels
Display aspect ratio                     : 16:9
Frame rate mode                          : Variable
Frame rate                               : 30.000 FPS
Color space                              : YUV
Chroma subsampling                       : 4:2:0
Bit depth                                : 10 bits
Bits/(Pixel*Frame)                       : 0.037
Stream size                              : 1.41 GiB (99%)
Default                                  : Yes
Forced                                   : No
Color range                              : Limited
Color primaries                          : BT.709
Transfer characteristics                 : BT.709
Matrix coefficients                      : BT.709

Audio
ID                                       : 2
Format                                   : AAC LC
Format/Info                              : Advanced Audio Codec Low Complexity
Codec ID                                 : A_AAC-2
Duration                                 : 21 min 52 s
Bit rate                                 : 93.4 kb/s
Channel(s)                               : 2 channels
Channel layout                           : L R
Sampling rate                            : 48.0 kHz
Frame rate                               : 46.875 FPS (1024 SPF)
Compression mode                         : Lossy
Delay relative to video                  : -33 ms
Stream size                              : 14.6 MiB (1%)
Language                                 : Chinese
Default                                  : Yes
Forced                                   : No

Text
ID                                       : 3
Format                                   : ASS
Codec ID                                 : S_TEXT/ASS
Codec ID/Info                            : Advanced Sub Station Alpha
Duration                                 : 21 min 9 s
Bit rate                                 : 134 b/s
Frame rate                               : 0.278 FPS
Count of elements                        : 353
Compression mode                         : Lossless
Stream size                              : 20.8 KiB (0%)
Language                                 : English
Default                                  : Yes
Forced                                   : No

Menu
00:00:00.000                             : Opening
00:02:26.300                             : Previously
00:02:57.000                             : Episode 91
00:18:41.400                             : Advertisements
00:19:11.300                             : Ending
00:21:16.200                             : Preview
beta
Anime DDL+NZB mirror
Current Time: 18/06/2024 00:07



About/FAQs

Discord