[Tsundere] Yotsunoha OVA - 02 [DVDRip h264 864x480 10bit FLAC][AC63CC82].mkv


File Size380.3 MB (398,735,673 bytes)
DownloadGo4Up | Jheberg | MultiUp | SolidFiles | UsersCloud | UsersFiles
Sendspace: Part1, Part2
HashesCRC32: AC63CC82, MD5: EE77FEF9BC77BC2FA3543E130E5F3DB1, SHA1: 5A1CB9FB6D1F9CCDE66C0A48E7407402440AFC2A, SHA256: A9A8A444710AA90C177B12A57EBD6905E843C1C522F6DE1116B862214F7CDC86, ED2K: 1CF06879893229D41B3785DA7314C446
Screenshots
screenshotscreenshotscreenshotscreenshotscreenshot
SubtitlesAll Attachments | eng [ASS]
Additional Info
General
Unique ID                                : 171314828378607190450714305204642985621 (0x80E209297B011ACE86AD866E577D3695)
Complete name                            : [Tsundere] Yotsunoha OVA - 02 [DVDRip h264 864x480 10bit FLAC][AC63CC82].mkv
Format                                   : Matroska
Format version                           : Version 4 / Version 2
File size                                : 380 MiB
Duration                                 : 35mn 34s
Overall bit rate mode                    : Variable
Overall bit rate                         : 1 494 Kbps
Movie name                               : Yotsunoha OVA E02
Encoded date                             : UTC 2015-03-25 17:28:01
Writing application                      : mkvmerge v7.5.0 ('Glass Culture') 64bit built on Jan  4 2015 16:48:44
Writing library                          : libebml v1.3.1 + libmatroska v1.4.2
Attachments                              : [gg]_Nerawareta_Gakuen_(BD,1080p)_[3C33C253]_attachment_Light at the end.ttf / A-OTF-Jun34Pro-Medium-Kami.ttf / A-OTF-KYOKAICAPRO-REGULAR-Ilya.ttf / KozMinPr6N-Light.otf / moonp.ttf / QUORUMM.TTF

Video
ID                                       : 1
Format                                   : AVC
Format/Info                              : Advanced Video Codec
Format profile                           : High 10@L4
Format settings, CABAC                   : Yes
Format settings, ReFrames                : 16 frames
Codec ID                                 : V_MPEG4/ISO/AVC
Duration                                 : 35mn 34s
Bit rate                                 : 753 Kbps
Width                                    : 864 pixels
Height                                   : 480 pixels
Display aspect ratio                     : 16:9
Frame rate mode                          : Constant
Frame rate                               : 23.976 (24000/1001) fps
Color space                              : YUV
Chroma subsampling                       : 4:2:0
Bit depth                                : 10 bits
Scan type                                : Progressive
Bits/(Pixel*Frame)                       : 0.076
Stream size                              : 192 MiB (50%)
Writing library                          : x264 core 133 r2334 a3ac64b
Encoding settings                        : cabac=1 / ref=16 / deblock=1:1:1 / analyse=0x3:0x133 / me=umh / subme=9 / psy=1 / psy_rd=0.40:0.00 / mixed_ref=1 / me_range=32 / chroma_me=1 / trellis=2 / 8x8dct=1 / cqm=0 / deadzone=21,11 / fast_pskip=1 / chroma_qp_offset=-2 / threads=6 / lookahead_threads=1 / sliced_threads=0 / nr=0 / decimate=1 / interlaced=0 / bluray_compat=0 / constrained_intra=0 / bframes=5 / b_pyramid=2 / b_adapt=2 / b_bias=0 / direct=3 / weightb=1 / open_gop=0 / weightp=2 / keyint=250 / keyint_min=23 / scenecut=40 / intra_refresh=0 / rc_lookahead=60 / rc=crf / mbtree=1 / crf=14.0 / qcomp=0.60 / qpmin=0 / qpmax=81 / qpstep=4 / ip_ratio=1.40 / aq=1:0.80
Default                                  : Yes
Forced                                   : No
Color range                              : Limited
Matrix coefficients                      : BT.601

Audio
ID                                       : 2
Format                                   : FLAC
Format/Info                              : Free Lossless Audio Codec
Codec ID                                 : A_FLAC
Duration                                 : 35mn 34s
Bit rate mode                            : Variable
Bit rate                                 : 684 Kbps
Channel(s)                               : 2 channels
Sampling rate                            : 48.0 KHz
Frame rate                               : 11.719 fps (4096 spf)
Bit depth                                : 16 bits
Stream size                              : 174 MiB (46%)
Writing library                          : libFLAC 1.2.1 (UTC 2007-09-17)
Language                                 : Japanese
Default                                  : Yes
Forced                                   : No

Text
ID                                       : 3
Format                                   : ASS
Codec ID                                 : S_TEXT/ASS
Codec ID/Info                            : Advanced Sub Station Alpha
Duration                                 : 35mn 28s
Bit rate                                 : 105 bps
Count of elements                        : 447
Compression mode                         : Lossless
Stream size                              : 27.5 KiB (0%)
Language                                 : English
Default                                  : Yes
Forced                                   : No

Menu
00:00:00.000                             : :Intro
00:02:14.612                             : :OP
00:04:00.759                             : :Episode
00:33:44.556                             : :ED

Other Files in this Torrent
[Tsundere] Yotsunoha OVA - 02 [DVDRip h264 864x480 10bit FLAC][AC63CC82].mkv
beta
Anime DDL+NZB mirror
Current Time: 03/08/2021 18:18



About/FAQs