[Tsundere] Yotsunoha OVA - 01 [DVDRip h264 864x480 10bit FLAC][37A22C75].mkv


File Size407.1 MB (426,881,041 bytes)
DownloadGo4Up | Jheberg | MultiUp | SolidFiles | UsersCloud | UsersFiles
Sendspace: Part1, Part2
HashesCRC32: 37A22C75, MD5: 88612891B9DFF6EF1BC41A4C54C6FDBF, SHA1: 860E3FE7A5A827411D15EAE63C39AD6E8C65C497, SHA256: 3DB7AEC5D3335AEC40937B60476913AC63FF0BE667DAA7A5F1E6674D37789C2D, ED2K: 8652C8F693FFDA33A9E365366C31F7D9
Screenshots
screenshotscreenshotscreenshotscreenshotscreenshot
SubtitlesAll Attachments | jpn [ASS]
Additional Info
General
Unique ID                                : 171804375617574379704457220492372733065 (0x814051B4546BA0B391254E7057C7EC89)
Complete name                            : [Tsundere] Yotsunoha OVA - 01 [DVDRip h264 864x480 10bit FLAC][37A22C75].mkv
Format                                   : Matroska
Format version                           : Version 4 / Version 2
File size                                : 407 MiB
Duration                                 : 37mn 5s
Overall bit rate mode                    : Variable
Overall bit rate                         : 1 534 Kbps
Movie name                               : Yotsunoha OVA E01
Encoded date                             : UTC 2015-03-25 14:40:31
Writing application                      : mkvmerge v7.5.0 ('Glass Culture') 64bit built on Jan  4 2015 16:48:44
Writing library                          : libebml v1.3.1 + libmatroska v1.4.2
Attachments                              : A-OTF-Jun34Pro-Medium-Kami.ttf / A-OTF-KYOKAICAPRO-REGULAR-Ilya.ttf / KozMinPr6N-Light.otf / moonp.ttf / QUORUMM.TTF / [gg]_Nerawareta_Gakuen_(BD,1080p)_[3C33C253]_attachment_Light at the end.ttf

Video
ID                                       : 1
Format                                   : AVC
Format/Info                              : Advanced Video Codec
Format profile                           : High 10@L4
Format settings, CABAC                   : Yes
Format settings, ReFrames                : 16 frames
Codec ID                                 : V_MPEG4/ISO/AVC
Duration                                 : 37mn 5s
Bit rate                                 : 783 Kbps
Width                                    : 864 pixels
Height                                   : 480 pixels
Display aspect ratio                     : 16:9
Frame rate mode                          : Constant
Frame rate                               : 23.976 (24000/1001) fps
Color space                              : YUV
Chroma subsampling                       : 4:2:0
Bit depth                                : 10 bits
Scan type                                : Progressive
Bits/(Pixel*Frame)                       : 0.079
Stream size                              : 208 MiB (51%)
Writing library                          : x264 core 133 r2334 a3ac64b
Encoding settings                        : cabac=1 / ref=16 / deblock=1:1:1 / analyse=0x3:0x133 / me=umh / subme=9 / psy=1 / psy_rd=0.40:0.00 / mixed_ref=1 / me_range=32 / chroma_me=1 / trellis=2 / 8x8dct=1 / cqm=0 / deadzone=21,11 / fast_pskip=1 / chroma_qp_offset=-2 / threads=6 / lookahead_threads=1 / sliced_threads=0 / nr=0 / decimate=1 / interlaced=0 / bluray_compat=0 / constrained_intra=0 / bframes=5 / b_pyramid=2 / b_adapt=2 / b_bias=0 / direct=3 / weightb=1 / open_gop=0 / weightp=2 / keyint=250 / keyint_min=23 / scenecut=40 / intra_refresh=0 / rc_lookahead=60 / rc=crf / mbtree=1 / crf=14.0 / qcomp=0.60 / qpmin=0 / qpmax=81 / qpstep=4 / ip_ratio=1.40 / aq=1:0.80
Default                                  : Yes
Forced                                   : No
Color range                              : Limited
Matrix coefficients                      : BT.601

Audio
ID                                       : 2
Format                                   : FLAC
Format/Info                              : Free Lossless Audio Codec
Codec ID                                 : A_FLAC
Duration                                 : 37mn 5s
Bit rate mode                            : Variable
Bit rate                                 : 696 Kbps
Channel(s)                               : 2 channels
Sampling rate                            : 48.0 KHz
Frame rate                               : 11.719 fps (4096 spf)
Bit depth                                : 16 bits
Stream size                              : 185 MiB (45%)
Writing library                          : libFLAC 1.2.1 (UTC 2007-09-17)
Language                                 : Japanese
Default                                  : Yes
Forced                                   : No

Text
ID                                       : 3
Format                                   : ASS
Codec ID                                 : S_TEXT/ASS
Codec ID/Info                            : Advanced Sub Station Alpha
Duration                                 : 36mn 42s
Bit rate                                 : 124 bps
Count of elements                        : 532
Compression mode                         : Lossless
Stream size                              : 33.4 KiB (0%)
Language                                 : Japanese
Default                                  : Yes
Forced                                   : No

Menu
00:00:00.000                             : :Intro
00:02:09.712                             : :OP
00:03:55.858                             : :Episode
00:35:15.635                             : :ED

Other Files in this Torrent
[Tsundere] Yotsunoha OVA - 01 [DVDRip h264 864x480 10bit FLAC][37A22C75].mkv
beta
Anime DDL+NZB mirror
Current Time: 03/08/2021 17:35



About/FAQs