[Tsukihimates] Tsukihime -A Piece of Blue Glass Moon- Prologue (English).mp4


File Size210.7 MB (220,938,034 bytes)
DownloadAnonFiles | ClickNUpload | DownloadGG | DropAPK | MultiUp
  • BdUpload
  • DownAce
  • Fichier
  • FileCloud
  • Filerio
  • FilesCdn
  • IndiShare
  • Kbagi
  • Turbobit
  • UpToBox
  • Uppit
| SolidFiles | ZippyShare
HashesCRC32: 8DA82A15, MD5: FF0C00DCA5889EE9FACD906CBBCBCB8A, SHA1: E20CC63B520A311BE2443959E3599C185E1020F0, SHA256: E6881A96EF50BE4B2C20859EE1EEDAA4D6B83577466EC8EF7B803BD8BDAA94B9, ED2K: C1AD5F3D217D6994121FF1B23E19670C
Screenshots
screenshotscreenshotscreenshotscreenshotscreenshot
Additional Info
General
Complete name                            : [Tsukihimates] Tsukihime -A Piece of Blue Glass Moon- Prologue (English).mp4
Format                                   : MPEG-4
Format profile                           : Base Media / Version 2
Codec ID                                 : mp42 (mp42/mp41)
File size                                : 211 MiB
Duration                                 : 6 min 29 s
Overall bit rate mode                    : Variable
Overall bit rate                         : 4 543 kb/s
Encoded date                             : UTC 2021-12-11 14:03:57
Tagged date                              : UTC 2021-12-11 14:04:03
TIM                                      : 00:00:00:00
TSC                                      : 30
TSZ                                      : 1

Video
ID                                       : 1
Format                                   : AVC
Format/Info                              : Advanced Video Codec
Format profile                           : High@L4.2
Format settings                          : CABAC / 1 Ref Frames
Format settings, CABAC                   : Yes
Format settings, ReFrames                : 1 frame
Format settings, GOP                     : M=1, N=30
Codec ID                                 : avc1
Codec ID/Info                            : Advanced Video Coding
Duration                                 : 6 min 29 s
Bit rate                                 : 4 218 kb/s
Width                                    : 1 920 pixels
Height                                   : 1 080 pixels
Display aspect ratio                     : 16:9
Frame rate mode                          : Constant
Frame rate                               : 30.000 FPS
Color space                              : YUV
Chroma subsampling                       : 4:2:0
Bit depth                                : 8 bits
Scan type                                : Progressive
Bits/(Pixel*Frame)                       : 0.068
Stream size                              : 196 MiB (93%)
Language                                 : English
Encoded date                             : UTC 2021-12-11 14:03:57
Tagged date                              : UTC 2021-12-11 14:03:57
Codec configuration box                  : avcC

Audio
ID                                       : 2
Format                                   : AAC LC
Format/Info                              : Advanced Audio Codec Low Complexity
Codec ID                                 : mp4a-40-2
Duration                                 : 6 min 29 s
Source duration                          : 6 min 29 s
Bit rate mode                            : Variable
Bit rate                                 : 317 kb/s
Maximum bit rate                         : 394 kb/s
Channel(s)                               : 2 channels
Channel layout                           : L R
Sampling rate                            : 48.0 kHz
Frame rate                               : 46.875 FPS (1024 SPF)
Compression mode                         : Lossy
Stream size                              : 14.7 MiB (7%)
Source stream size                       : 14.7 MiB (7%)
Language                                 : English
Encoded date                             : UTC 2021-12-11 14:03:57
Tagged date                              : UTC 2021-12-11 14:03:57
beta
Anime DDL+NZB mirror
Current Time: 23/02/2024 06:17



About/FAQs

Discord