File Size203.5 MB (213,397,618 bytes)
DownloadClickNUpload | DailyUploads | DownloadGG | GoFile | KrakenFiles | MdiaLoad | MultiUp
  • BdUpload
  • DownAce
  • Fichier
  • FileCloud
  • Filerio
  • FilesCdn
  • IndiShare
  • Kbagi
  • Turbobit
  • UpToBox
  • Uppit
| Uppit
HashesCRC32: 4FD3B5FB, MD5: 94E1F2E3213D8859D7087FC79C9CAFA8, SHA1: B9D32F5F44AC459D1E9D18295B6395B64A360EDF, SHA256: EA835AC0927841E632636416DFBD69344333EF2661AEAAB459882B5B038F3621, ED2K: 3C86D862B993AFAA5349D3699D4404C4
Screenshots
screenshotscreenshotscreenshotscreenshotscreenshot
SubtitlesAll Attachments | English [eng, ASS], French [fre, ASS], German [ger, ASS], Italian [ita, ASS], Portuguese (Brazilian) [por, ASS], Russian [rus, ASS], Spanish [spa, ASS], Spanish (Latin America) [spa, ASS]
Additional Info
General
Unique ID                                : 83799163911070720450256459910292910333 (0x3F0B21C4CB5F0C8422C09980B9EB30FD)
Complete name                            : [Trix] Tensei Shitara Slime Datta Ken Coleus no Yume - 01 (WEB 1080p AV1).mkv
Format                                   : Matroska
Format version                           : Version 4
File size                                : 204 MiB
Duration                                 : 24 min 30 s
Overall bit rate                         : 1 161 kb/s
Frame rate                               : 23.976 FPS
Movie name                               : Visions of Coleus: To Coleus
Encoded date                             : 2023-11-01 09:10:29 UTC
Writing application                      : mkvmerge v79.0.4 ('Funeral Pyres') 64-bit
Writing library                          : libebml v1.4.4 + libmatroska v1.7.1
Cover                                    : Yes
Attachments                              : ARIALBD.TTF / IMPACT.TTF / VERDANAB.TTF / VERDANA.TTF / TREBUCBD.TTF / GEORGIAZ.TTF / TREBUCIT.TTF / GANDHISANS-BOLDITALIC.OTF / TAHOMA.TTF / ARIAL.TTF / TREBUCBI.TTF / GEORGIAB.TTF / TIMESBI.TTF / GEORGIAI.TTF / GANDHISANS-BOLD.OTF / TREBUC.TTF / TIMES.TTF / GEORGIA.TTF / VERDANAI.TTF / TIMESBD.TTF / cover

Video
ID                                       : 1
Format                                   : AV1
Format/Info                              : AOMedia Video 1
Format profile                           : Main@L4.0
Codec ID                                 : V_AV1
Duration                                 : 24 min 30 s
Bit rate                                 : 948 kb/s
Width                                    : 1 920 pixels
Height                                   : 1 080 pixels
Display aspect ratio                     : 16:9
Frame rate mode                          : Constant
Frame rate                               : 23.976 (24000/1001) FPS
Color space                              : YUV
Chroma subsampling                       : 4:2:0
Bit depth                                : 10 bits
Bits/(Pixel*Frame)                       : 0.019
Stream size                              : 166 MiB (82%)
Title                                    : By Trix
Default                                  : Yes
Forced                                   : No
Color range                              : Limited
Color primaries                          : BT.709
Transfer characteristics                 : BT.709
Matrix coefficients                      : BT.709

Audio
ID                                       : 2
Format                                   : AAC LC
Format/Info                              : Advanced Audio Codec Low Complexity
Codec ID                                 : A_AAC-2
Duration                                 : 24 min 30 s
Bit rate                                 : 128 kb/s
Channel(s)                               : 2 channels
Channel layout                           : L R
Sampling rate                            : 44.1 kHz
Frame rate                               : 43.066 FPS (1024 SPF)
Compression mode                         : Lossy
Stream size                              : 22.4 MiB (11%)
Title                                    : Japanese - AAC 2.0
Language                                 : Japanese
Default                                  : Yes
Forced                                   : No

Text #1
ID                                       : 3
Format                                   : ASS
Codec ID                                 : S_TEXT/ASS
Codec ID/Info                            : Advanced Sub Station Alpha
Duration                                 : 24 min 26 s
Bit rate                                 : 158 b/s
Frame rate                               : 0.306 FPS
Count of elements                        : 448
Compression mode                         : Lossless
Stream size                              : 28.4 KiB (0%)
Title                                    : English
Language                                 : English
Default                                  : Yes
Forced                                   : No

Text #2
ID                                       : 4
Format                                   : ASS
Codec ID                                 : S_TEXT/ASS
Codec ID/Info                            : Advanced Sub Station Alpha
Duration                                 : 24 min 24 s
Bit rate                                 : 164 b/s
Frame rate                               : 0.273 FPS
Count of elements                        : 400
Compression mode                         : Lossless
Stream size                              : 29.5 KiB (0%)
Title                                    : French
Language                                 : French
Default                                  : No
Forced                                   : No

Text #3
ID                                       : 5
Format                                   : ASS
Codec ID                                 : S_TEXT/ASS
Codec ID/Info                            : Advanced Sub Station Alpha
Duration                                 : 24 min 26 s
Bit rate                                 : 231 b/s
Frame rate                               : 0.283 FPS
Count of elements                        : 415
Compression mode                         : Lossless
Stream size                              : 41.4 KiB (0%)
Title                                    : German
Language                                 : German
Default                                  : No
Forced                                   : No

Text #4
ID                                       : 6
Format                                   : ASS
Codec ID                                 : S_TEXT/ASS
Codec ID/Info                            : Advanced Sub Station Alpha
Duration                                 : 24 min 26 s
Bit rate                                 : 199 b/s
Frame rate                               : 0.332 FPS
Count of elements                        : 487
Compression mode                         : Lossless
Stream size                              : 35.6 KiB (0%)
Title                                    : Italian
Language                                 : Italian
Default                                  : No
Forced                                   : No

Text #5
ID                                       : 7
Format                                   : ASS
Codec ID                                 : S_TEXT/ASS
Codec ID/Info                            : Advanced Sub Station Alpha
Duration                                 : 24 min 26 s
Bit rate                                 : 185 b/s
Frame rate                               : 0.305 FPS
Count of elements                        : 447
Compression mode                         : Lossless
Stream size                              : 33.2 KiB (0%)
Title                                    : Portuguese (Brazilian)
Language                                 : Portuguese
Default                                  : No
Forced                                   : No

Text #6
ID                                       : 8
Format                                   : ASS
Codec ID                                 : S_TEXT/ASS
Codec ID/Info                            : Advanced Sub Station Alpha
Duration                                 : 24 min 26 s
Bit rate                                 : 278 b/s
Frame rate                               : 0.305 FPS
Count of elements                        : 447
Compression mode                         : Lossless
Stream size                              : 49.8 KiB (0%)
Title                                    : Russian
Language                                 : Russian
Default                                  : No
Forced                                   : No

Text #7
ID                                       : 9
Format                                   : ASS
Codec ID                                 : S_TEXT/ASS
Codec ID/Info                            : Advanced Sub Station Alpha
Duration                                 : 24 min 26 s
Bit rate                                 : 194 b/s
Frame rate                               : 0.295 FPS
Count of elements                        : 432
Compression mode                         : Lossless
Stream size                              : 34.9 KiB (0%)
Title                                    : Spanish
Language                                 : Spanish
Default                                  : No
Forced                                   : No

Text #8
ID                                       : 10
Format                                   : ASS
Codec ID                                 : S_TEXT/ASS
Codec ID/Info                            : Advanced Sub Station Alpha
Duration                                 : 24 min 26 s
Bit rate                                 : 194 b/s
Frame rate                               : 0.295 FPS
Count of elements                        : 432
Compression mode                         : Lossless
Stream size                              : 34.8 KiB (0%)
Title                                    : Spanish (Latin America)
Language                                 : Spanish
Default                                  : No
Forced                                   : No

Menu
00:00:00.000                             : en:Prologue
00:00:23.023                             : en:Opening
00:01:53.030                             : en:Part A
00:13:34.022                             : en:Part B
00:22:54.999                             : en:Ending
00:24:25.005                             : en:Preview

Other Files in this Torrent
[Trix] Tensei Shitara Slime Datta Ken Coleus no Yume - 01 (WEB 1080p AV1).mkv
beta
Anime DDL+NZB mirror
Current Time: 25/05/2024 20:24



About/FAQs

Discord