[Trix] Suzume no Tojimari - 12 Minute Preview (1080p AV1 E-AC-3) [CCDC71F9].mkv


File Size246.2 MB (258,137,913 bytes)
DownloadAnonFiles | ClickNUpload | DownloadGG | GoFile | KrakenFiles | MdiaLoad | MultiUp
  • BdUpload
  • DownAce
  • Fichier
  • FileCloud
  • Filerio
  • FilesCdn
  • IndiShare
  • Kbagi
  • Turbobit
  • UpToBox
  • Uppit
HashesCRC32: CCDC71F9, MD5: 5921DBE732927F110A55065988245930, SHA1: 5E0D0D096974AA69810C27FCF0C6F72EE3ADB7BE, SHA256: 271BC84F7225CAB3A290B50D070A6EE98BB631935FAFF1668AB4F242854A7E47, ED2K: DC44248E0F045D32E55F7D6F9117928C
Screenshots
screenshotscreenshotscreenshotscreenshotscreenshot
SubtitlesAll Attachments | eng [ASS]
Additional Info
General
Unique ID                                : 59767480550064631821138064002195027989 (0x2CF6CC4CF3B9A12CDE52027ABF2E7815)
Complete name                            : [Trix] Suzume no Tojimari  - 12 Minute Preview (1080p AV1 E-AC-3) [CCDC71F9].mkv
Format                                   : Matroska
Format version                           : Version 4
File size                                : 246 MiB
Duration                                 : 12 min 52 s
Overall bit rate                         : 2 675 kb/s
Movie name                               : Suzume no Tojimari - 12 Minute Preview
Encoded date                             : UTC 2023-03-31 17:19:25
Writing application                      : mkvmerge v73.0.0 ('25 or 6 to 4') 64-bit
Writing library                          : libebml v1.4.4 + libmatroska v1.7.1 / Lavf59.27.100
Attachments                              : GANDHISANS-BOLDITALIC.OTF / GANDHISANS-BOLD.OTF

Video
ID                                       : 1
Format                                   : AV1
Format/Info                              : AOMedia Video 1
Format profile                           : Main@L4.0
Codec ID                                 : V_AV1
Duration                                 : 12 min 52 s
Bit rate                                 : 2 447 kb/s
Width                                    : 1 920 pixels
Height                                   : 800 pixels
Display aspect ratio                     : 2.40:1
Frame rate mode                          : Constant
Frame rate                               : 23.976 (24000/1001) FPS
Color space                              : YUV
Chroma subsampling                       : 4:2:0
Bit depth                                : 10 bits
Bits/(Pixel*Frame)                       : 0.066
Stream size                              : 225 MiB (91%)
Default                                  : Yes
Forced                                   : No
Color range                              : Limited
Color primaries                          : BT.709
Transfer characteristics                 : BT.709
Matrix coefficients                      : BT.709

Audio
ID                                       : 2
Format                                   : E-AC-3
Format/Info                              : Enhanced AC-3
Commercial name                          : Dolby Digital Plus
Codec ID                                 : A_EAC3
Duration                                 : 12 min 52 s
Bit rate mode                            : Constant
Bit rate                                 : 224 kb/s
Channel(s)                               : 2 channels
Channel layout                           : L R
Sampling rate                            : 48.0 kHz
Frame rate                               : 31.250 FPS (1536 SPF)
Bit depth                                : 32 bits
Compression mode                         : Lossy
Stream size                              : 20.6 MiB (8%)
Language                                 : Japanese
Service kind                             : Complete Main
Default                                  : Yes
Forced                                   : No

Text
ID                                       : 3
Format                                   : ASS
Codec ID                                 : S_TEXT/ASS
Codec ID/Info                            : Advanced Sub Station Alpha
Duration                                 : 11 min 34 s
Bit rate                                 : 72 b/s
Count of elements                        : 133
Compression mode                         : Lossless
Stream size                              : 6.14 KiB (0%)
Language                                 : English
Default                                  : Yes
Forced                                   : No
beta
Anime DDL+NZB mirror
Current Time: 22/04/2024 10:40



About/FAQs

Discord