File Size737.4 MB (773,269,139 bytes)
DownloadClickNUpload | DownloadGG
MultiUp: Part1
  • BdUpload
  • DownAce
  • Fichier
  • FileCloud
  • Filerio
  • FilesCdn
  • IndiShare
  • Kbagi
  • Turbobit
  • UpToBox
  • Uppit
, Part2
  • BdUpload
  • DownAce
  • Fichier
  • FileCloud
  • Filerio
  • FilesCdn
  • IndiShare
  • Kbagi
  • Turbobit
  • UpToBox
  • Uppit

ZippyShare: Part1, Part2
HashesCRC32: D9EACB47, MD5: DC1076E8D5197D9C7CBFBAAB3AC9001E, SHA1: 812CA7A87102DC8ACFCDB32C1B5AD5407983D710, SHA256: F77E67CD99601D9E91CD11F2794103ACDE30E88BFDF090E9FD2066DD4BFBD1EB, ED2K: 18584A29C10E4F5D1E8D80E04D0EC5C9
Screenshots
screenshotscreenshotscreenshotscreenshotscreenshot
SubtitlesAll Attachments | Eng subs [eng, SRT], VOSTFR [fre, ASS]
Additional Info
General
Unique ID                                : 2550719113866239774365264681822176640 (0x1EB40296D12979806C62E74B2B9C580)
Complete name                            : [Trix] Josee to Tora to Sakana-tachi (BD 1920x804 AV1 Opus).mkv
Format                                   : Matroska
Format version                           : Version 4
File size                                : 737 MiB
Duration                                 : 1 h 38 min
Overall bit rate                         : 1 050 kb/s
Encoded date                             : UTC 2022-04-21 18:16:00
Writing application                      : mkvmerge v66.0.0 ('Josie') 64-bit
Writing library                          : libebml v1.4.2 + libmatroska v1.6.4 / Lavf59.20.101
Cover                                    : Yes
Attachments                              : Cover

Video
ID                                       : 1
Format                                   : AV1
Format/Info                              : AOMedia Video 1
Format profile                           : Main@L4.0
Codec ID                                 : V_AV1
Duration                                 : 1 h 38 min
Bit rate                                 : 923 kb/s
Width                                    : 1 920 pixels
Height                                   : 804 pixels
Display aspect ratio                     : 2.40:1
Frame rate mode                          : Constant
Frame rate                               : 23.976 (24000/1001) FPS
Color space                              : YUV
Chroma subsampling                       : 4:2:0
Bit depth                                : 10 bits
Bits/(Pixel*Frame)                       : 0.025
Stream size                              : 648 MiB (88%)
Default                                  : Yes
Forced                                   : No
Color range                              : Limited
Color primaries                          : BT.709
Transfer characteristics                 : BT.709
Matrix coefficients                      : BT.709

Audio
ID                                       : 2
Format                                   : Opus
Codec ID                                 : A_OPUS
Duration                                 : 1 h 38 min
Bit rate                                 : 124 kb/s
Channel(s)                               : 2 channels
Channel layout                           : L R
Sampling rate                            : 48.0 kHz
Frame rate                               : 50.000 FPS (960 SPF)
Bit depth                                : 32 bits
Compression mode                         : Lossy
Stream size                              : 87.2 MiB (12%)
Title                                    : JPN Opus 2.0
Writing library                          : Lavc59.25.101 libopus
Language                                 : Japanese
Default                                  : Yes
Forced                                   : No

Text #1
ID                                       : 3
Format                                   : UTF-8
Codec ID                                 : S_TEXT/UTF8
Codec ID/Info                            : UTF-8 Plain Text
Duration                                 : 1 h 36 min
Bit rate                                 : 37 b/s
Count of elements                        : 1051
Stream size                              : 26.4 KiB (0%)
Title                                    : Eng subs
Language                                 : English
Default                                  : Yes
Forced                                   : No

Text #2
ID                                       : 4
Format                                   : ASS
Codec ID                                 : S_TEXT/ASS
Codec ID/Info                            : Advanced Sub Station Alpha
Duration                                 : 1 h 37 min
Bit rate                                 : 80 b/s
Count of elements                        : 1046
Compression mode                         : Lossless
Stream size                              : 57.0 KiB (0%)
Title                                    : VOSTFR
Language                                 : French
Default                                  : No
Forced                                   : No

Menu
00:00:00.000                             : :Avant
00:02:25.520                             : :Part A
00:14:01.674                             : :Part B
00:26:55.322                             : :Part C
00:38:08.327                             : :Part D
00:48:01.461                             : :Part E
01:00:20.116                             : :Part F
01:12:06.989                             : :Part G
01:21:10.699                             : :Part H
01:32:32.338                             : :ED
01:37:18.624                             : :END
beta
Anime DDL+NZB mirror
Current Time: 24/06/2024 14:04



About/FAQs

Discord