File Size148.8 MB (156,025,661 bytes)
DownloadAnonFiles | ClickNUpload | DownloadGG | KrakenFiles | MultiUp
  • BdUpload
  • DownAce
  • Fichier
  • FileCloud
  • Filerio
  • FilesCdn
  • IndiShare
  • Kbagi
  • Turbobit
  • UpToBox
  • Uppit
| ZippyShare
HashesCRC32: 4C0F1238, MD5: 049C59126016CA40F7957F61AEF114EC, SHA1: A9A60F2F49C5E0BFFB653D5FEC5610690203EBE9, SHA256: B53FB1F79A03EF7C858553DEBC0712DF87068EE253FF76D820B051EDBF7FA0E9, ED2K: 00C1AEF93BE8054B08738524BBFA4DD2
Screenshots
screenshotscreenshotscreenshotscreenshotscreenshot
SubtitlesAll Attachments | English [eng, ASS], Portuguese(Brazil) [por, ASS], Spanish(Latin_America) [spa, ASS], Spanish [spa, ASS], Arabic [ara, ASS], French [fre, ASS], German [ger, ASS], Italian [ita, ASS], Russian [rus, ASS]
Additional Info
General
Unique ID                                : 314008161224564010840021985782708225990 (0xEC3BC5A4F760BB30BDE7A63FD6CEC7C6)
Complete name                            : [Trix] Don't Toy with Me Miss Nagatoro - S02E01 - (720p AV1 AAC)[Multi Subs].mkv
Format                                   : Matroska
Format version                           : Version 4
File size                                : 149 MiB
Duration                                 : 23 min 40 s
Overall bit rate                         : 879 kb/s
Encoded date                             : UTC 2023-01-07 22:12:46
Writing application                      : Auto-Release Script v1.2
Writing library                          : Auto-Release Script v1.2
Attachments                              : arialbd.ttf / arialbi.ttf / Arial_0.ttf / ariblk_0.TTF / calibri.ttf / comicbd.ttf / comic_0.ttf / georgiab.ttf / georgiaz.ttf / georgia_0.ttf / impact_0.ttf / Tahoma_0.ttf / times_0.ttf / trebuc_0.ttf / verdana_0.ttf / AdobeArabic-Bold.otf / AdobeArabic-BoldItalic.otf / AdobeArabic-Italic.otf / AdobeArabic-Regular.otf

Video
ID                                       : 1
Format                                   : AV1
Format/Info                              : AOMedia Video 1
Format profile                           : Main@L3.1
Codec ID                                 : V_AV1
Duration                                 : 23 min 40 s
Bit rate                                 : 705 kb/s
Width                                    : 1 280 pixels
Height                                   : 720 pixels
Display aspect ratio                     : 16:9
Frame rate mode                          : Constant
Frame rate                               : 23.976 (24000/1001) FPS
Color space                              : YUV
Chroma subsampling                       : 4:2:0
Bit depth                                : 10 bits
Bits/(Pixel*Frame)                       : 0.032
Stream size                              : 119 MiB (80%)
Default                                  : Yes
Forced                                   : No
Color range                              : Limited

Audio
ID                                       : 2
Format                                   : AAC LC
Format/Info                              : Advanced Audio Codec Low Complexity
Codec ID                                 : A_AAC-2
Duration                                 : 23 min 40 s
Bit rate                                 : 128 kb/s
Channel(s)                               : 2 channels
Channel layout                           : L R
Sampling rate                            : 44.1 kHz
Frame rate                               : 43.066 FPS (1024 SPF)
Compression mode                         : Lossy
Stream size                              : 21.7 MiB (15%)
Language                                 : Japanese
Default                                  : Yes
Forced                                   : No

Text #1
ID                                       : 3
Format                                   : ASS
Codec ID                                 : S_TEXT/ASS
Codec ID/Info                            : Advanced Sub Station Alpha
Duration                                 : 21 min 53 s
Bit rate                                 : 159 b/s
Count of elements                        : 387
Compression mode                         : Lossless
Stream size                              : 25.7 KiB (0%)
Title                                    : English
Language                                 : English
Default                                  : Yes
Forced                                   : No

Text #2
ID                                       : 4
Format                                   : ASS
Codec ID                                 : S_TEXT/ASS
Codec ID/Info                            : Advanced Sub Station Alpha
Duration                                 : 23 min 39 s
Bit rate                                 : 175 b/s
Count of elements                        : 476
Compression mode                         : Lossless
Stream size                              : 30.4 KiB (0%)
Title                                    : Portuguese(Brazil)
Language                                 : Portuguese
Default                                  : No
Forced                                   : No

Text #3
ID                                       : 5
Format                                   : ASS
Codec ID                                 : S_TEXT/ASS
Codec ID/Info                            : Advanced Sub Station Alpha
Duration                                 : 23 min 39 s
Bit rate                                 : 138 b/s
Count of elements                        : 369
Compression mode                         : Lossless
Stream size                              : 24.1 KiB (0%)
Title                                    : Spanish(Latin_America)
Language                                 : Spanish
Default                                  : No
Forced                                   : No

Text #4
ID                                       : 6
Format                                   : ASS
Codec ID                                 : S_TEXT/ASS
Codec ID/Info                            : Advanced Sub Station Alpha
Duration                                 : 23 min 39 s
Bit rate                                 : 139 b/s
Count of elements                        : 369
Compression mode                         : Lossless
Stream size                              : 24.1 KiB (0%)
Title                                    : Spanish
Language                                 : Spanish
Default                                  : No
Forced                                   : No

Text #5
ID                                       : 7
Format                                   : ASS
Codec ID                                 : S_TEXT/ASS
Codec ID/Info                            : Advanced Sub Station Alpha
Duration                                 : 21 min 54 s
Bit rate                                 : 176 b/s
Count of elements                        : 382
Compression mode                         : Lossless
Stream size                              : 28.4 KiB (0%)
Title                                    : Arabic
Language                                 : Arabic
Default                                  : No
Forced                                   : No

Text #6
ID                                       : 8
Format                                   : ASS
Codec ID                                 : S_TEXT/ASS
Codec ID/Info                            : Advanced Sub Station Alpha
Duration                                 : 23 min 39 s
Bit rate                                 : 267 b/s
Count of elements                        : 537
Compression mode                         : Lossless
Stream size                              : 46.3 KiB (0%)
Title                                    : French
Language                                 : French
Default                                  : No
Forced                                   : No

Text #7
ID                                       : 9
Format                                   : ASS
Codec ID                                 : S_TEXT/ASS
Codec ID/Info                            : Advanced Sub Station Alpha
Duration                                 : 23 min 39 s
Bit rate                                 : 172 b/s
Count of elements                        : 439
Compression mode                         : Lossless
Stream size                              : 29.9 KiB (0%)
Title                                    : German
Language                                 : German
Default                                  : No
Forced                                   : No

Text #8
ID                                       : 10
Format                                   : ASS
Codec ID                                 : S_TEXT/ASS
Codec ID/Info                            : Advanced Sub Station Alpha
Duration                                 : 23 min 39 s
Bit rate                                 : 145 b/s
Count of elements                        : 400
Compression mode                         : Lossless
Stream size                              : 25.2 KiB (0%)
Title                                    : Italian
Language                                 : Italian
Default                                  : No
Forced                                   : No

Text #9
ID                                       : 11
Format                                   : ASS
Codec ID                                 : S_TEXT/ASS
Codec ID/Info                            : Advanced Sub Station Alpha
Duration                                 : 23 min 39 s
Bit rate                                 : 215 b/s
Count of elements                        : 420
Compression mode                         : Lossless
Stream size                              : 37.4 KiB (0%)
Title                                    : Russian
Language                                 : Russian
Default                                  : No
Forced                                   : No

Other Files in this Torrent
[Trix] Don't Toy with Me Miss Nagatoro - S02E01 - (720p AV1 AAC)[Multi Subs].mkv
beta
Anime DDL+NZB mirror
Current Time: 16/06/2024 15:03



About/FAQs

Discord