Tokyo Ghoul OVA [01] Jack [aac ITA JAP sub ENG] by Salvo.mkv


File Size161.2 MB (169,034,484 bytes)
DownloadClickNUpload | Go4Up | Jheberg | MultiUp
  • ClickNupload
  • Fichier
  • Filerio
  • Free
  • Fufox
  • HugeFiles
  • Mightyupload
  • ToutBox
  • Turbobit
  • UpToBox
  • Uplea
  • UploadBaz
  • Uploadable
  • Uploaded
  • Uppit
  • Userscloud
  • ZippyShare
| OpenLoad | Sendspace | SolidFiles
HashesCRC32: C5495B14, MD5: 9D2DFE2C3EEF4519B0DB4C9B07D62BBD, SHA1: D4F8A5DC6A1E24F7FE9CE59B2B8AC6B134CDB630, SHA256: A7435259EA191228507327D81B5925522332D6013D8EF734EA886D7DBEAEB2AC, ED2K: 98117203BB31021FDCD1DDB24E16E293
Screenshots
screenshotscreenshotscreenshotscreenshotscreenshot
SubtitlesAll Attachments | Signs [eng, ASS], Full Subtitles [eng, ASS]
Additional Info
General
Unique ID                                : 182515194892822845498216828370824478245 (0x894F25DDC1806DFABAB6B11A70E03E25)
Complete name                            : Tokyo Ghoul OVA [01] Jack [aac ITA JAP sub ENG] by Salvo.mkv
Format                                   : Matroska
Format version                           : Version 4 / Version 2
File size                                : 161 MiB
Duration                                 : 30 min 1 s
Overall bit rate                         : 751 kb/s
Movie name                               : Tokyo Ghoul OVA: "Jack"
Encoded date                             : UTC 2017-05-28 20:05:24
Writing application                      : mkvmerge v7.2.0 ('On Every Street') 32bit built on Sep 13 2014 15:42:11
Writing library                          : libebml v1.3.0 + libmatroska v1.4.1
Attachments                              : Denne Marker.ttf / OLDSH__.TTF / Angie-Bold.ttf / arial_0.ttf / constan.ttf

Video
ID                                       : 1
Format                                   : HEVC
Format/Info                              : High Efficiency Video Coding
Format profile                           : Main@L3@Main
Codec ID                                 : V_MPEGH/ISO/HEVC
Duration                                 : 30 min 1 s
Bit rate                                 : 501 kb/s
Width                                    : 720 pixels
Height                                   : 400 pixels
Display aspect ratio                     : 16:9
Frame rate mode                          : Constant
Frame rate                               : 23.976 (24000/1001) FPS
Color space                              : YUV
Chroma subsampling                       : 4:2:0
Bit depth                                : 8 bits
Bits/(Pixel*Frame)                       : 0.073
Stream size                              : 108 MiB (67%)
Writing library                          : x265 2.2+2-998d4520d1cf:[Windows][GCC 6.2.0][64 bit] 8bit+10bit+12bit
Encoding settings                        : cpuid=1049151 / frame-threads=1 / numa-pools=1,0,0,0 / wpp / no-pmode / no-pme / no-psnr / no-ssim / log-level=2 / input-csp=1 / input-res=720x400 / interlace=0 / total-frames=43189 / level-idc=0 / high-tier=1 / uhd-bd=0 / ref=4 / no-allow-non-conformance / no-repeat-headers / annexb / no-aud / no-hrd / info / hash=0 / no-temporal-layers / open-gop / min-keyint=23 / keyint=250 / bframes=4 / b-adapt=2 / b-pyramid / bframe-bias=0 / rc-lookahead=25 / lookahead-slices=0 / scenecut=40 / no-intra-refresh / ctu=64 / min-cu-size=8 / rect / no-amp / max-tu-size=32 / tu-inter-depth=1 / tu-intra-depth=1 / limit-tu=0 / rdoq-level=2 / signhide / no-tskip / nr-intra=0 / nr-inter=0 / no-constrained-intra / strong-intra-smoothing / max-merge=3 / limit-refs=3 / limit-modes / me=3 / subme=3 / merange=57 / temporal-mvp / no-weightp / no-weightb / no-analyze-src-pics / no-deblock / no-sao / no-sao-non-deblock / rd=4 / no-early-skip / rskip / no-fast-intra / no-tskip-fast / no-cu-lossless / no-b-intra / rdpenalty=0 / psy-rd=2.00 / psy-rdoq=1.00 / no-rd-refine / analysis-mode=0 / no-lossless / cbqpoffs=0 / crqpoffs=0 / rc=abr / bitrate=500 / qcomp=0.60 / qpstep=4 / stats-write=0 / stats-read=2 / cplxblur=20.0 / qblur=0.5 / ipratio=1.40 / pbratio=1.30 / aq-mode=1 / aq-strength=1.00 / cutree / zone-count=0 / no-strict-cbr / qg-size=32 / no-rc-grain / qpmax=69 / qpmin=0 / sar=1 / overscan=0 / videoformat=5 / range=0 / colorprim=2 / transfer=2 / colormatrix=2 / chromaloc=0 / display-window=0 / max-cll=0,0 / min-luma=0 / max-luma=255 / log2-max-poc-lsb=8 / vui-timing-info / vui-hrd-info / slices=1 / opt-qp-pps / opt-ref-list-length-pps / no-multi-pass-opt-rps / scenecut-bias=0.05
Default                                  : Yes
Forced                                   : No

Audio #1
ID                                       : 2
Format                                   : AAC
Format/Info                              : Advanced Audio Codec
Format profile                           : LC
Codec ID                                 : A_AAC
Duration                                 : 30 min 1 s
Bit rate                                 : 119 kb/s
Channel(s)                               : 2 channels
Channel positions                        : Front: L R
Sampling rate                            : 48.0 kHz
Frame rate                               : 46.875 FPS (1024 spf)
Compression mode                         : Lossy
Delay relative to video                  : 9 ms
Stream size                              : 25.5 MiB (16%)
Title                                    : aac 2ch
Language                                 : Italian
Default                                  : Yes
Forced                                   : No

Audio #2
ID                                       : 3
Format                                   : AAC
Format/Info                              : Advanced Audio Codec
Format profile                           : LC
Codec ID                                 : A_AAC
Duration                                 : 30 min 1 s
Bit rate                                 : 120 kb/s
Channel(s)                               : 2 channels
Channel positions                        : Front: L R
Sampling rate                            : 48.0 kHz
Frame rate                               : 46.875 FPS (1024 spf)
Compression mode                         : Lossy
Delay relative to video                  : 9 ms
Stream size                              : 25.7 MiB (16%)
Title                                    : aac 2ch
Language                                 : Japanese
Default                                  : No
Forced                                   : No

Text #1
ID                                       : 4
Format                                   : ASS
Codec ID                                 : S_TEXT/ASS
Codec ID/Info                            : Advanced Sub Station Alpha
Duration                                 : 27 min 56 s
Bit rate                                 : 792 b/s
Count of elements                        : 1418
Compression mode                         : Lossless
Stream size                              : 162 KiB (0%)
Title                                    : Signs
Language                                 : English
Default                                  : Yes
Forced                                   : No

Text #2
ID                                       : 5
Format                                   : ASS
Codec ID                                 : S_TEXT/ASS
Codec ID/Info                            : Advanced Sub Station Alpha
Duration                                 : 28 min 43 s
Bit rate                                 : 812 b/s
Count of elements                        : 1826
Compression mode                         : Lossless
Stream size                              : 171 KiB (0%)
Title                                    : Full Subtitles
Language                                 : English
Default                                  : No
Forced                                   : No

Menu
00:00:00.000                             : en:Intro
00:01:29.005                             : en:Part 1
00:10:45.080                             : en:Part 2
00:19:29.080                             : en:Part 3
00:26:30.020                             : en:Epilogue
00:28:53.020                             : en:Ending

Other Files in this Torrent
Tokyo Ghoul OVA [01] Jack [aac ITA JAP sub ENG] by Salvo.mkv
beta
Anime DDL+NZB mirror
Current Time: 02/12/2021 16:50



About/FAQs

Discord