File Size309.7 MB (324,786,176 bytes)
DownloadGo4Up | Jheberg | MultiUp
  • BayFiles
  • BillionUploads
  • DepositFiles
  • Fichier
  • Free
  • HugeFiles
  • Ryushare
  • Turbobit
  • UpToBox
  • UploadHero
  • Uploaded
| SolidFiles | UsersFiles
Sendspace: Part1, Part2
ShareBeast: Part1, Part2
Encrypted DownloadDirect
Password:
HashesCRC32: 004E4C99, MD5: E3155B9D21C12F842BCBAE013CDF3FD9, SHA1: A52BDECE144FA28C596F71F88874AA1239A7250E, SHA256: AE3FD19B026978F55C20604D999F104CB25587FD93911ECDE0A10C1B6DD09C29, ED2K: 998700223610D02E1CBF3563F8311B90
Screenshots
screenshotscreenshotscreenshotscreenshotscreenshot
Additional Info
General
Complete name                            : Tokyo Ghoul [11] Impeto [ac3 ITA JAP] by Salvo.avi
Format                                   : AVI
Format/Info                              : Audio Video Interleave
File size                                : 310 MiB
Duration                                 : 24mn 5s
Overall bit rate                         : 1 798 Kbps
Writing application                      : VirtualDubMod 1.5.10.3 | www.virtualdub-fr.org || (build 2550/release)
Writing library                          : VirtualDubMod build 2550/release

Video
ID                                       : 0
Format                                   : MPEG-4 Visual
Format profile                           : Advanced Simple@L5
Format settings, BVOP                    : No
Format settings, QPel                    : No
Format settings, GMC                     : No warppoints
Format settings, Matrix                  : Default (MPEG)
Codec ID                                 : XVID
Codec ID/Hint                            : XviD
Duration                                 : 24mn 5s
Bit rate                                 : 1 400 Kbps
Width                                    : 720 pixels
Height                                   : 400 pixels
Display aspect ratio                     : 16:9
Frame rate                               : 23.976 fps
Color space                              : YUV
Chroma subsampling                       : 4:2:0
Bit depth                                : 8 bits
Scan type                                : Progressive
Compression mode                         : Lossy
Bits/(Pixel*Frame)                       : 0.203
Stream size                              : 241 MiB (78%)
Writing library                          : XviD 1.2.1 (UTC 2008-12-04)

Audio #1
ID                                       : 1
Format                                   : AC-3
Format/Info                              : Audio Coding 3
Mode extension                           : CM (complete main)
Format settings, Endianness              : Big
Codec ID                                 : 2000
Duration                                 : 24mn 5s
Bit rate mode                            : Constant
Bit rate                                 : 192 Kbps
Channel(s)                               : 2 channels
Channel positions                        : Front: L R
Sampling rate                            : 48.0 KHz
Bit depth                                : 16 bits
Compression mode                         : Lossy
Stream size                              : 33.1 MiB (11%)
Alignment                                : Split accross interleaves
Interleave, duration                     : 42 ms (1.00 video frame)
Interleave, preload duration             : 500 ms

Audio #2
ID                                       : 2
Format                                   : AC-3
Format/Info                              : Audio Coding 3
Mode extension                           : CM (complete main)
Format settings, Endianness              : Big
Codec ID                                 : 2000
Duration                                 : 24mn 5s
Bit rate mode                            : Constant
Bit rate                                 : 192 Kbps
Channel(s)                               : 2 channels
Channel positions                        : Front: L R
Sampling rate                            : 48.0 KHz
Bit depth                                : 16 bits
Compression mode                         : Lossy
Stream size                              : 33.1 MiB (11%)
Alignment                                : Split accross interleaves
Interleave, duration                     : 42 ms (1.00 video frame)
Interleave, preload duration             : 500 ms

Other Files in this Torrent
Tokyo Ghoul [11] Impeto [ac3 ITA JAP] by Salvo.avi
beta
Anime DDL+NZB mirror
Current Time: 07/12/2019 02:32



About/FAQs