File Size479.0 MB (502,256,702 bytes)
DownloadAnonFiles | ClickNUpload | DropAPK | Free | MultiUp
  • BdUpload
  • DownAce
  • Fichier
  • FileCloud
  • Filerio
  • FilesCdn
  • IndiShare
  • Kbagi
  • Turbobit
  • UpToBox
  • Uppit
| SolidFiles | ZippyShare
HashesCRC32: 2FC3C3D9, MD5: EF28EBA736980B822768DAF10971EB43, SHA1: D3CF4900C1FC8BA565D314D6AD64A3F0C6F2D89E, SHA256: 07B3D01605E65A5BAC7E6C756B7C33FE716BDC84B4B3F81EB6A16E96AEC45CF1, ED2K: 2ED531F3EC27DEF272CF8E09C361AD14
Screenshots
screenshotscreenshotscreenshotscreenshotscreenshot
SubtitlesAll Attachments | Signs [und, ASS], English Subs [und, ASS]
Additional Info
General
Unique ID                                : 284969161450591987706532899006690901951 (0xD663106A977F5227D7EA44BA6EA03FBF)
Complete name                            : [Toaster] 05 HxEros Rising.mkv
Format                                   : Matroska
Format version                           : Version 4
File size                                : 479 MiB
Duration                                 : 23 min 53 s
Overall bit rate                         : 2 804 kb/s
Encoded date                             : UTC 2021-01-13 20:29:28
Writing application                      : mkvmerge v51.0.0 ('I Wish') 64-bit
Writing library                          : libebml v1.4.0 + libmatroska v1.6.2 / Lavf55.33.100

Video
ID                                       : 1
Format                                   : AVC
Format/Info                              : Advanced Video Codec
Format profile                           : Main@L3.2
Format settings                          : CABAC / 1 Ref Frames
Format settings, CABAC                   : Yes
Format settings, ReFrames                : 1 frame
Codec ID                                 : V_MPEG4/ISO/AVC
Duration                                 : 23 min 53 s
Bit rate                                 : 2 330 kb/s
Width                                    : 1 280 pixels
Height                                   : 720 pixels
Display aspect ratio                     : 16:9
Frame rate mode                          : Constant
Frame rate                               : 23.976 (23976/1000) FPS
Color space                              : YUV
Chroma subsampling                       : 4:2:0
Bit depth                                : 8 bits
Scan type                                : Progressive
Bits/(Pixel*Frame)                       : 0.105
Stream size                              : 398 MiB (83%)
Default                                  : Yes
Forced                                   : No

Audio #1
ID                                       : 2
Format                                   : AAC LC
Format/Info                              : Advanced Audio Codec Low Complexity
Codec ID                                 : A_AAC-2
Duration                                 : 23 min 53 s
Bit rate                                 : 192 kb/s
Channel(s)                               : 2 channels
Channel layout                           : L R
Sampling rate                            : 48.0 kHz
Frame rate                               : 46.875 FPS (1024 SPF)
Compression mode                         : Lossy
Stream size                              : 33.4 MiB (7%)
Title                                    : English
Default                                  : Yes
Forced                                   : No

Audio #2
ID                                       : 3
Format                                   : AAC LC
Format/Info                              : Advanced Audio Codec Low Complexity
Codec ID                                 : A_AAC-2
Duration                                 : 23 min 51 s
Bit rate                                 : 276 kb/s
Channel(s)                               : 2 channels
Channel layout                           : L R
Sampling rate                            : 48.0 kHz
Frame rate                               : 46.875 FPS (1024 SPF)
Compression mode                         : Lossy
Stream size                              : 47.0 MiB (10%)
Title                                    : Japanese
Default                                  : No
Forced                                   : No

Text #1
ID                                       : 4
Format                                   : ASS
Codec ID                                 : S_TEXT/ASS
Codec ID/Info                            : Advanced Sub Station Alpha
Duration                                 : 2 s 250 ms
Bit rate                                 : 167 b/s
Count of elements                        : 1
Compression mode                         : Lossless
Stream size                              : 47.0 Bytes (0%)
Title                                    : Signs
Default                                  : Yes
Forced                                   : No

Text #2
ID                                       : 5
Format                                   : ASS
Codec ID                                 : S_TEXT/ASS
Codec ID/Info                            : Advanced Sub Station Alpha
Duration                                 : 23 min 35 s
Bit rate                                 : 87 b/s
Count of elements                        : 282
Compression mode                         : Lossless
Stream size                              : 15.1 KiB (0%)
Title                                    : English Subs
Default                                  : No
Forced                                   : No

Other Files in this Torrent
[Toaster] 05 HxEros Rising.mkv
beta
Anime DDL+NZB mirror
Current Time: 27/02/2021 03:59



About/FAQs