[Tinosoft] Paripi Koumei - 11 [1080p HEVC x265].mkv


File Size204.1 MB (214,043,217 bytes)
DownloadAnonFiles | ClickNUpload | DownloadGG | KrakenFiles | MultiUp
  • BdUpload
  • DownAce
  • Fichier
  • FileCloud
  • Filerio
  • FilesCdn
  • IndiShare
  • Kbagi
  • Turbobit
  • UpToBox
  • Uppit
| ZippyShare
HashesCRC32: D5BBEEB0, MD5: BAD632C6242E635FCFDE10E5888FC4C7, SHA1: E2CF53A37B304B4C58B41FA7A538EFA08F18DF55, SHA256: BF4B8D15B023CE0FE995822CD8497A6FA4CBE9035A7DF2E52547F3086574E9EF, ED2K: AA5371863ABB9A04182AFB4A2676B3E4
Screenshots
screenshotscreenshotscreenshotscreenshotscreenshot
SubtitlesAll Attachments | Traditional Chinese [chi, SRT], Español Latino (MTL) [spa, ASS], English [eng, ASS]
Additional Info
General
Unique ID                                : 234707140142899908424095530900619902731 (0xB092F3708F3541F83AC70DD604A5BF0B)
Complete name                            : [Tinosoft] Paripi Koumei - 11 [1080p HEVC x265].mkv
Format                                   : Matroska
Format version                           : Version 4
File size                                : 204 MiB
Duration                                 : 23 min 40 s
Overall bit rate                         : 1 206 kb/s
Encoded date                             : UTC 2022-06-09 18:10:32
Writing application                      : mkvmerge v66.0.0 ('Josie') 64-bit
Writing library                          : libebml v1.4.2 + libmatroska v1.6.4

Video
ID                                       : 1
Format                                   : HEVC
Format/Info                              : High Efficiency Video Coding
Format profile                           : Main@L5@Main
Codec ID                                 : V_MPEGH/ISO/HEVC
Duration                                 : 23 min 40 s
Bit rate                                 : 883 kb/s
Width                                    : 1 920 pixels
Height                                   : 1 080 pixels
Display aspect ratio                     : 16:9
Frame rate mode                          : Constant
Frame rate                               : 23.976 (24000/1001) FPS
Color space                              : YUV
Chroma subsampling                       : 4:2:0
Bit depth                                : 8 bits
Bits/(Pixel*Frame)                       : 0.018
Stream size                              : 150 MiB (73%)
Default                                  : Yes
Forced                                   : No
Color range                              : Limited
Color primaries                          : BT.709
Transfer characteristics                 : BT.709
Matrix coefficients                      : BT.709

Audio
ID                                       : 2
Format                                   : AAC LC
Format/Info                              : Advanced Audio Codec Low Complexity
Codec ID                                 : A_AAC-2
Duration                                 : 23 min 40 s
Bit rate                                 : 320 kb/s
Channel(s)                               : 2 channels
Channel layout                           : L R
Sampling rate                            : 48.0 kHz
Frame rate                               : 46.875 FPS (1024 SPF)
Compression mode                         : Lossy
Stream size                              : 54.2 MiB (27%)
Language                                 : Japanese
Default                                  : Yes
Forced                                   : No

Text #1
ID                                       : 3
Format                                   : UTF-8
Codec ID                                 : S_TEXT/UTF8
Codec ID/Info                            : UTF-8 Plain Text
Duration                                 : 23 min 35 s
Bit rate                                 : 67 b/s
Count of elements                        : 439
Stream size                              : 11.6 KiB (0%)
Title                                    : Traditional Chinese
Language                                 : Chinese
Default                                  : No
Forced                                   : No

Text #2
ID                                       : 4
Format                                   : ASS
Codec ID                                 : S_TEXT/ASS
Codec ID/Info                            : Advanced Sub Station Alpha
Duration                                 : 22 min 4 s
Bit rate                                 : 102 b/s
Count of elements                        : 287
Compression mode                         : Lossless
Stream size                              : 16.6 KiB (0%)
Title                                    : Español Latino (MTL)
Language                                 : Spanish
Default                                  : No
Forced                                   : No

Text #3
ID                                       : 5
Format                                   : ASS
Codec ID                                 : S_TEXT/ASS
Codec ID/Info                            : Advanced Sub Station Alpha
Duration                                 : 22 min 4 s
Bit rate                                 : 93 b/s
Count of elements                        : 287
Compression mode                         : Lossless
Stream size                              : 15.1 KiB (0%)
Title                                    : English
Language                                 : English
Default                                  : No
Forced                                   : No

Menu
00:00:00.000                             : en:Prologue
00:02:48.336                             : en:Opening
00:04:14.754                             : en:Episode
00:22:15.127                             : en:Ending
00:23:38.543                             : en:Preview

Other Files in this Torrent
[Tinosoft] Paripi Koumei - 11 [1080p HEVC x265].mkv
beta
Anime DDL+NZB mirror
Current Time: 24/06/2024 07:37



About/FAQs

Discord