That Time I Got Reincarnated as a Slime - OVA 02 - The Tragedy of M (1080p Dual Audio FUNI WEB-DL -KS-).mkv


File Size1.477 GB (1,586,069,091 bytes)
DownloadClickNUpload | Jheberg
MultiUp: Part1
  • BdUpload
  • DownAce
  • Fichier
  • FileCloud
  • Filerio
  • FilesCdn
  • IndiShare
  • Kbagi
  • Turbobit
  • UpToBox
  • Uppit
, Part2
  • BdUpload
  • DownAce
  • Fichier
  • FileCloud
  • Filerio
  • FilesCdn
  • IndiShare
  • Kbagi
  • Turbobit
  • UpToBox
  • Uppit
, Part3
  • BdUpload
  • DownAce
  • Fichier
  • FileCloud
  • Filerio
  • FilesCdn
  • IndiShare
  • Kbagi
  • Turbobit
  • UpToBox
  • Uppit
, Part4
  • BdUpload
  • DownAce
  • Fichier
  • FileCloud
  • Filerio
  • FilesCdn
  • IndiShare
  • Kbagi
  • Turbobit
  • UpToBox
  • Uppit

OpenLoad: Part1, Part2
Sendspace: Part1, Part2, Part3, Part4, Part5, Part6
SolidFiles: Part1, Part2, Part3, Part4
ZippyShare: Part1, Part2, Part3, Part4
HashesCRC32: 31046348, MD5: 19AC280B983D8ECA3CB2623696A714E9, SHA1: 37D1A8DCBF4466898B7C7B3DD1C8F9EDD807937E, SHA256: 458276A59038BCB232C1F9BBE59DB075BFD8C0880C05B821C4609AEB1061DE13, ED2K: 2BD230749B96685303290A9A693DD22F
Screenshots
screenshotscreenshotscreenshotscreenshotscreenshot
SubtitlesAll Attachments | Songs (LostYears) [eng, ASS], Full Subs (Crunchyroll) [eng, ASS]
Additional Info
General
Unique ID                                : 176245020311191277919442289157329828092 (0x84978E6436D0016906CEFAD4F0C2B8FC)
Complete name                            : That Time I Got Reincarnated as a Slime -  OVA 02 - The Tragedy of M (1080p Dual Audio FUNI WEB-DL -KS-).mkv
Format                                   : Matroska
Format version                           : Version 4
File size                                : 1.48 GiB
Duration                                 : 23 min 36 s
Overall bit rate mode                    : Variable
Overall bit rate                         : 8 959 kb/s
Movie name                               : OVA 02 - The Tragedy of M
Encoded date                             : UTC 2019-08-02 01:02:33
Writing application                      : mkvmerge v35.0.0 ('All The Love In The World') 64-bit
Writing library                          : libebml v1.3.9 + libmatroska v1.5.2
Attachments                              : HELVETICANEUELT-MEDIUM.TTF / FTLTLT.TTF / GARA.TTF / GenBkBasB.ttf / Iwata Mincho Old ProEn HRegular.ttf / Kisha.Serif.ttf / LT.ttf / LT_italic.ttf / MorrisRomanBlack.ttf / Abbey Md_PFLNormal.ttf / arial_0.ttf / CALISTB.TTF

Video
ID                                       : 1
Format                                   : AVC
Format/Info                              : Advanced Video Codec
Format profile                           : High@L4
Format settings                          : CABAC / 4 Ref Frames
Format settings, CABAC                   : Yes
Format settings, ReFrames                : 4 frames
Format settings, GOP                     : M=3, N=48
Codec ID                                 : V_MPEG4/ISO/AVC
Duration                                 : 23 min 36 s
Bit rate                                 : 8 000 kb/s
Width                                    : 1 920 pixels
Height                                   : 1 080 pixels
Display aspect ratio                     : 16:9
Frame rate mode                          : Constant
Frame rate                               : 23.976 (24000/1001) FPS
Color space                              : YUV
Chroma subsampling                       : 4:2:0
Bit depth                                : 8 bits
Scan type                                : Progressive
Bits/(Pixel*Frame)                       : 0.161
Stream size                              : 1.29 GiB (87%)
Title                                    : FUNI WEB-DL (Simulcast)
Writing library                          : x264 core 157 r2948 dada181
Encoding settings                        : cabac=1 / ref=1 / deblock=1:0:0 / analyse=0x3:0x113 / me=hex / subme=7 / psy=1 / psy_rd=1.00:0.00 / mixed_ref=0 / me_range=16 / chroma_me=1 / trellis=1 / 8x8dct=1 / cqm=0 / deadzone=21,11 / fast_pskip=1 / chroma_qp_offset=-2 / threads=24 / lookahead_threads=4 / sliced_threads=0 / nr=0 / decimate=1 / interlaced=0 / bluray_compat=0 / constrained_intra=0 / bframes=2 / b_pyramid=2 / b_adapt=1 / b_bias=0 / direct=1 / weightb=1 / open_gop=0 / weightp=2 / keyint=48 / keyint_min=4 / scenecut=40 / intra_refresh=0 / rc_lookahead=40 / rc=cbr / mbtree=1 / bitrate=8000 / ratetol=1.0 / qcomp=0.60 / qpmin=0 / qpmax=69 / qpstep=4 / vbv_maxrate=8000 / vbv_bufsize=24000 / nal_hrd=none / filler=0 / ip_ratio=1.40 / aq=1:1.00
Language                                 : Japanese
Default                                  : Yes
Forced                                   : No

Audio #1
ID                                       : 2
Format                                   : AAC LC
Format/Info                              : Advanced Audio Codec Low Complexity
Codec ID                                 : A_AAC-2
Duration                                 : 23 min 36 s
Bit rate                                 : 253 kb/s
Channel(s)                               : 2 channels
Channel layout                           : L R
Sampling rate                            : 48.0 kHz
Frame rate                               : 46.875 FPS (1024 SPF)
Compression mode                         : Lossy
Delay relative to video                  : -43 ms
Stream size                              : 42.8 MiB (3%)
Title                                    : English (2.0 AAC, FUNi WEB-DL)
Language                                 : English
Default                                  : Yes
Forced                                   : No

Audio #2
ID                                       : 3
Format                                   : FLAC
Format/Info                              : Free Lossless Audio Codec
Codec ID                                 : A_FLAC
Duration                                 : 23 min 36 s
Bit rate mode                            : Variable
Bit rate                                 : 732 kb/s
Channel(s)                               : 2 channels
Sampling rate                            : 44.1 kHz
Frame rate                               : 10.767 FPS (4096 SPF)
Bit depth                                : 16 bits
Compression mode                         : Lossless
Delay relative to video                  : -43 ms
Stream size                              : 124 MiB (8%)
Title                                    : Japanese (2.0 FLAC, JP.DVD)
Writing library                          : libFLAC 1.2.1 (UTC 2007-09-17)
Language                                 : Japanese
Default                                  : No
Forced                                   : No

Text #1
ID                                       : 4
Format                                   : ASS
Codec ID                                 : S_TEXT/ASS
Codec ID/Info                            : Advanced Sub Station Alpha
Duration                                 : 23 min 14 s
Bit rate                                 : 40.9 kb/s
Count of elements                        : 66288
Compression mode                         : Lossless
Stream size                              : 6.79 MiB (0%)
Title                                    : Songs (LostYears)
Language                                 : English
Default                                  : Yes
Forced                                   : No

Text #2
ID                                       : 5
Format                                   : ASS
Codec ID                                 : S_TEXT/ASS
Codec ID/Info                            : Advanced Sub Station Alpha
Duration                                 : 23 min 14 s
Bit rate                                 : 41.0 kb/s
Count of elements                        : 66605
Compression mode                         : Lossless
Stream size                              : 6.81 MiB (0%)
Title                                    : Full Subs (Crunchyroll)
Language                                 : English
Default                                  : No
Forced                                   : No

Menu
00:00:00.000                             : ja:Intro
00:00:17.017                             : ja:Opening
00:01:47.023                             : ja:OVA
00:22:03.155                             : ja:Ending
beta
Anime DDL+NZB mirror
Current Time: 23/02/2020 17:00



About/FAQs