That Time I Got Reincarnated as a Slime [MCR]/Reincarnated as a Slime - 24 - Extra~ Black and a Mask [MCR] [F0F2212F].mkv


File Size360.4 MB (377,918,987 bytes)
DownloadClickNUpload | Go4Up
  • DownAce
  • FileFactory
  • KatFile
  • Oboom
  • OwnDrives
  • Share-Online
  • SolidFiles
  • TusFiles
  • Uppit
  • UsersCloud
| Jheberg | MultiUp
  • BdUpload
  • DownAce
  • Fichier
  • FileCloud
  • Filerio
  • FilesCdn
  • IndiShare
  • Kbagi
  • Solidfiles
  • Turbobit
  • UpToBox
  • Uppit
| OpenLoad | ZippyShare
Sendspace: Part1, Part2
HashesCRC32: F0F2212F, MD5: 2E255AFDACDDEE0CEDFD4A365E2B2213, SHA1: 772F9F4B09B08E6EC9BC877984830D7401E9A258, SHA256: F29971ADFF650C702F7011F5FE7ADE2CA8847129062DACD637F137E85CCCD72A, ED2K: 022CC9AC84CDAC5B64FF597EA7B347B6
Screenshots
screenshotscreenshotscreenshotscreenshotscreenshot
SubtitlesAll Attachments | eng [ASS], ara [ASS], fre [ASS], ger [ASS], ita [ASS], por [ASS], rus [ASS], spa [ASS], spa [ASS]
Additional Info
General
Unique ID                                : 238074708385957143930550089389792256284 (0xB31B855F7B2F7706BDDB3718EAEF611C)
Complete name                            : Reincarnated as a Slime - 24 - Extra~ Black and a Mask  [MCR] [F0F2212F].mkv
Format                                   : Matroska
Format version                           : Version 4
File size                                : 360 MiB
Duration                                 : 23 min 50 s
Overall bit rate                         : 2 114 kb/s
Movie name                               : Reincarnated as a Slime - 24 - Extra: Black and a Mask  [MCR]
Encoded date                             : UTC 2019-04-09 00:09:49
Writing application                      : mkvmerge v15.0.0 ('Duel with the Devil') 64-bit
Writing library                          : libebml v1.3.5 + libmatroska v1.4.5
Cover                                    : Yes
Attachments                              : cover.jpg
Encoded by                               : MCR

Video
ID                                       : 1
Format                                   : HEVC
Format/Info                              : High Efficiency Video Coding
Format profile                           : Main 10@L4@Main
Codec ID                                 : V_MPEGH/ISO/HEVC
Duration                                 : 23 min 50 s
Bit rate                                 : 1 764 kb/s
Width                                    : 1 920 pixels
Height                                   : 1 080 pixels
Display aspect ratio                     : 16:9
Frame rate mode                          : Constant
Frame rate                               : 23.976 (24000/1001) FPS
Color space                              : YUV
Chroma subsampling                       : 4:2:0
Bit depth                                : 10 bits
Bits/(Pixel*Frame)                       : 0.035
Stream size                              : 301 MiB (83%)
Title                                    : [MCR]
Default                                  : Yes
Forced                                   : No

Audio #1
ID                                       : 2
Format                                   : AAC LC
Format/Info                              : Advanced Audio Codec Low Complexity
Codec ID                                 : A_AAC-2
Duration                                 : 23 min 50 s
Bit rate                                 : 218 kb/s
Channel(s)                               : 2 channels
Channel layout                           : L R
Sampling rate                            : 48.0 kHz
Frame rate                               : 46.875 FPS (1024 SPF)
Compression mode                         : Lossy
Delay relative to video                  : 20 ms
Stream size                              : 37.2 MiB (10%)
Language                                 : English
Default                                  : Yes
Forced                                   : No

Audio #2
ID                                       : 3
Format                                   : AAC LC
Format/Info                              : Advanced Audio Codec Low Complexity
Codec ID                                 : A_AAC-2
Duration                                 : 23 min 50 s
Bit rate                                 : 125 kb/s
Channel(s)                               : 2 channels
Channel layout                           : L R
Sampling rate                            : 44.1 kHz
Frame rate                               : 43.066 FPS (1024 SPF)
Compression mode                         : Lossy
Delay relative to video                  : 22 ms
Stream size                              : 21.3 MiB (6%)
Language                                 : Japanese
Default                                  : No
Forced                                   : No

Text #1
ID                                       : 4
Format                                   : ASS
Codec ID                                 : S_TEXT/ASS
Codec ID/Info                            : Advanced Sub Station Alpha
Duration                                 : 23 min 43 s
Bit rate                                 : 135 b/s
Count of elements                        : 339
Compression mode                         : Lossless
Stream size                              : 23.6 KiB (0%)
Language                                 : English
Default                                  : No
Forced                                   : No

Text #2
ID                                       : 5
Format                                   : ASS
Codec ID                                 : S_TEXT/ASS
Codec ID/Info                            : Advanced Sub Station Alpha
Duration                                 : 23 min 43 s
Bit rate                                 : 164 b/s
Count of elements                        : 339
Compression mode                         : Lossless
Stream size                              : 28.5 KiB (0%)
Language                                 : Arabic
Default                                  : No
Forced                                   : No

Text #3
ID                                       : 6
Format                                   : ASS
Codec ID                                 : S_TEXT/ASS
Codec ID/Info                            : Advanced Sub Station Alpha
Duration                                 : 23 min 42 s
Bit rate                                 : 135 b/s
Count of elements                        : 344
Compression mode                         : Lossless
Stream size                              : 23.6 KiB (0%)
Language                                 : French
Default                                  : No
Forced                                   : No

Text #4
ID                                       : 7
Format                                   : ASS
Codec ID                                 : S_TEXT/ASS
Codec ID/Info                            : Advanced Sub Station Alpha
Duration                                 : 23 min 43 s
Bit rate                                 : 153 b/s
Count of elements                        : 378
Compression mode                         : Lossless
Stream size                              : 26.7 KiB (0%)
Language                                 : German
Default                                  : No
Forced                                   : No

Text #5
ID                                       : 8
Format                                   : ASS
Codec ID                                 : S_TEXT/ASS
Codec ID/Info                            : Advanced Sub Station Alpha
Duration                                 : 23 min 43 s
Bit rate                                 : 153 b/s
Count of elements                        : 439
Compression mode                         : Lossless
Stream size                              : 26.7 KiB (0%)
Language                                 : Italian
Default                                  : No
Forced                                   : No

Text #6
ID                                       : 9
Format                                   : ASS
Codec ID                                 : S_TEXT/ASS
Codec ID/Info                            : Advanced Sub Station Alpha
Duration                                 : 23 min 42 s
Bit rate                                 : 135 b/s
Count of elements                        : 338
Compression mode                         : Lossless
Stream size                              : 23.6 KiB (0%)
Language                                 : Portuguese
Default                                  : No
Forced                                   : No

Text #7
ID                                       : 10
Format                                   : ASS
Codec ID                                 : S_TEXT/ASS
Codec ID/Info                            : Advanced Sub Station Alpha
Duration                                 : 23 min 43 s
Bit rate                                 : 222 b/s
Count of elements                        : 367
Compression mode                         : Lossless
Stream size                              : 38.6 KiB (0%)
Language                                 : Russian
Default                                  : No
Forced                                   : No

Text #8
ID                                       : 11
Format                                   : ASS
Codec ID                                 : S_TEXT/ASS
Codec ID/Info                            : Advanced Sub Station Alpha
Duration                                 : 23 min 43 s
Bit rate                                 : 132 b/s
Count of elements                        : 334
Compression mode                         : Lossless
Stream size                              : 23.0 KiB (0%)
Language                                 : Spanish
Default                                  : No
Forced                                   : No

Text #9
ID                                       : 12
Format                                   : ASS
Codec ID                                 : S_TEXT/ASS
Codec ID/Info                            : Advanced Sub Station Alpha
Duration                                 : 23 min 43 s
Bit rate                                 : 132 b/s
Count of elements                        : 334
Compression mode                         : Lossless
Stream size                              : 23.0 KiB (0%)
Language                                 : Spanish
Default                                  : No
Forced                                   : No

Menu
00:00:00.000                             : en:Intro
00:01:49.526                             : en:OP
00:03:18.990                             : en:Part A
00:14:51.016                             : en:Part B
00:22:12.302                             : :ED
00:23:45.030                             : en:Next Episode
beta
Anime DDL+NZB mirror
Current Time: 06/04/2020 15:58



About/FAQs