That Time I Got Reincarnated as a Slime [MCR]/Reincarnated as a Slime - 24.5 - Tales Veldora's Journal [MCR] [8FB2E76E].mkv


File Size548.7 MB (575,372,543 bytes)
DownloadClickNUpload | Jheberg | OpenLoad
MultiUp: Part1
  • BdUpload
  • DownAce
  • Fichier
  • FileCloud
  • Filerio
  • FilesCdn
  • IndiShare
  • Kbagi
  • Solidfiles
  • Turbobit
  • UpToBox
  • Uppit
, Part2
  • BdUpload
  • DownAce
  • Fichier
  • FileCloud
  • Filerio
  • FilesCdn
  • IndiShare
  • Kbagi
  • Solidfiles
  • Turbobit
  • UpToBox
  • Uppit

Sendspace: Part1, Part2
ZippyShare: Part1, Part2
HashesCRC32: 8FB2E76E, MD5: 0EA095F9A87F4A98B27F2023035E7457, SHA1: 1B42883DC71A04513DE60CBA314B9FD09293FC2E, SHA256: C5757A5AA0B9562A30D3EE7CCD1DB7E037F7DEBC47FB1035DC10D78366C83CC2, ED2K: C8DC9AFAA10099CF4D58324A7173A8EC
Screenshots
screenshotscreenshotscreenshotscreenshotscreenshot
SubtitlesAll Attachments | eng [ASS], ara [ASS], fre [ASS], ger [ASS], ita [ASS], por [ASS], rus [ASS], spa [ASS], spa [ASS]
Additional Info
General
Unique ID                                : 196998596051357816293271839434278363751 (0x94348CACEEF89E1086A6B0F7648EE267)
Complete name                            : Reincarnated as a Slime - 24.5 - Tales Veldora's Journal  [MCR] [8FB2E76E].mkv
Format                                   : Matroska
Format version                           : Version 4
File size                                : 549 MiB
Duration                                 : 23 min 44 s
Overall bit rate                         : 3 232 kb/s
Movie name                               : Reincarnated as a Slime - 24.5 - Tales Veldora's Journal  [MCR]
Encoded date                             : UTC 2019-04-16 02:24:40
Writing application                      : mkvmerge v15.0.0 ('Duel with the Devil') 64-bit
Writing library                          : libebml v1.3.5 + libmatroska v1.4.5
Cover                                    : Yes
Attachments                              : cover.jpg
Encoded by                               : MCR

Video
ID                                       : 1
Format                                   : HEVC
Format/Info                              : High Efficiency Video Coding
Format profile                           : Main 10@L4@Main
Codec ID                                 : V_MPEGH/ISO/HEVC
Duration                                 : 23 min 44 s
Bit rate                                 : 2 897 kb/s
Width                                    : 1 920 pixels
Height                                   : 1 080 pixels
Display aspect ratio                     : 16:9
Frame rate mode                          : Constant
Frame rate                               : 23.976 (24000/1001) FPS
Color space                              : YUV
Chroma subsampling                       : 4:2:0
Bit depth                                : 10 bits
Bits/(Pixel*Frame)                       : 0.058
Stream size                              : 492 MiB (90%)
Title                                    : [MCR]
Default                                  : Yes
Forced                                   : No

Audio #1
ID                                       : 2
Format                                   : AAC LC
Format/Info                              : Advanced Audio Codec Low Complexity
Codec ID                                 : A_AAC-2
Duration                                 : 23 min 44 s
Bit rate                                 : 211 kb/s
Channel(s)                               : 2 channels
Channel layout                           : L R
Sampling rate                            : 48.0 kHz
Frame rate                               : 46.875 FPS (1024 SPF)
Compression mode                         : Lossy
Delay relative to video                  : 20 ms
Stream size                              : 35.9 MiB (7%)
Language                                 : English
Default                                  : Yes
Forced                                   : No

Audio #2
ID                                       : 3
Format                                   : AAC LC
Format/Info                              : Advanced Audio Codec Low Complexity
Codec ID                                 : A_AAC-2
Duration                                 : 23 min 44 s
Bit rate                                 : 117 kb/s
Channel(s)                               : 2 channels
Channel layout                           : L R
Sampling rate                            : 44.1 kHz
Frame rate                               : 43.066 FPS (1024 SPF)
Compression mode                         : Lossy
Delay relative to video                  : 22 ms
Stream size                              : 19.8 MiB (4%)
Language                                 : Japanese
Default                                  : No
Forced                                   : No

Text #1
ID                                       : 4
Format                                   : ASS
Codec ID                                 : S_TEXT/ASS
Codec ID/Info                            : Advanced Sub Station Alpha
Duration                                 : 22 min 6 s
Bit rate                                 : 187 b/s
Count of elements                        : 426
Compression mode                         : Lossless
Stream size                              : 30.4 KiB (0%)
Language                                 : English
Default                                  : No
Forced                                   : No

Text #2
ID                                       : 5
Format                                   : ASS
Codec ID                                 : S_TEXT/ASS
Codec ID/Info                            : Advanced Sub Station Alpha
Duration                                 : 22 min 6 s
Bit rate                                 : 229 b/s
Count of elements                        : 426
Compression mode                         : Lossless
Stream size                              : 37.2 KiB (0%)
Language                                 : Arabic
Default                                  : No
Forced                                   : No

Text #3
ID                                       : 6
Format                                   : ASS
Codec ID                                 : S_TEXT/ASS
Codec ID/Info                            : Advanced Sub Station Alpha
Duration                                 : 22 min 6 s
Bit rate                                 : 160 b/s
Count of elements                        : 385
Compression mode                         : Lossless
Stream size                              : 26.0 KiB (0%)
Language                                 : French
Default                                  : No
Forced                                   : No

Text #4
ID                                       : 7
Format                                   : ASS
Codec ID                                 : S_TEXT/ASS
Codec ID/Info                            : Advanced Sub Station Alpha
Duration                                 : 22 min 7 s
Bit rate                                 : 204 b/s
Count of elements                        : 481
Compression mode                         : Lossless
Stream size                              : 33.1 KiB (0%)
Language                                 : German
Default                                  : No
Forced                                   : No

Text #5
ID                                       : 8
Format                                   : ASS
Codec ID                                 : S_TEXT/ASS
Codec ID/Info                            : Advanced Sub Station Alpha
Duration                                 : 22 min 7 s
Bit rate                                 : 187 b/s
Count of elements                        : 495
Compression mode                         : Lossless
Stream size                              : 30.3 KiB (0%)
Language                                 : Italian
Default                                  : No
Forced                                   : No

Text #6
ID                                       : 9
Format                                   : ASS
Codec ID                                 : S_TEXT/ASS
Codec ID/Info                            : Advanced Sub Station Alpha
Duration                                 : 22 min 6 s
Bit rate                                 : 191 b/s
Count of elements                        : 426
Compression mode                         : Lossless
Stream size                              : 31.0 KiB (0%)
Language                                 : Portuguese
Default                                  : No
Forced                                   : No

Text #7
ID                                       : 10
Format                                   : ASS
Codec ID                                 : S_TEXT/ASS
Codec ID/Info                            : Advanced Sub Station Alpha
Duration                                 : 22 min 6 s
Bit rate                                 : 285 b/s
Count of elements                        : 420
Compression mode                         : Lossless
Stream size                              : 46.2 KiB (0%)
Language                                 : Russian
Default                                  : No
Forced                                   : No

Text #8
ID                                       : 11
Format                                   : ASS
Codec ID                                 : S_TEXT/ASS
Codec ID/Info                            : Advanced Sub Station Alpha
Duration                                 : 22 min 6 s
Bit rate                                 : 174 b/s
Count of elements                        : 417
Compression mode                         : Lossless
Stream size                              : 28.2 KiB (0%)
Language                                 : Spanish
Default                                  : No
Forced                                   : No

Text #9
ID                                       : 12
Format                                   : ASS
Codec ID                                 : S_TEXT/ASS
Codec ID/Info                            : Advanced Sub Station Alpha
Duration                                 : 22 min 6 s
Bit rate                                 : 173 b/s
Count of elements                        : 417
Compression mode                         : Lossless
Stream size                              : 28.2 KiB (0%)
Language                                 : Spanish
Default                                  : No
Forced                                   : No

Menu
00:00:00.000                             : en:Intro
00:03:04.976                             : en:OP
00:04:35.038                             : en:Part A
00:13:25.013                             : en:Part B
00:22:14.001                             : en:ED
beta
Anime DDL+NZB mirror
Current Time: 06/04/2020 14:20



About/FAQs