File Size131.0 MB (137,369,410 bytes)
DownloadClickNUpload | Jheberg | MultiUp
  • BdUpload
  • DownAce
  • Fichier
  • FileCloud
  • Filerio
  • FilesCdn
  • IndiShare
  • Kbagi
  • Turbobit
  • UpToBox
  • Uppit
| OpenLoad | Sendspace | SolidFiles | ZippyShare
HashesCRC32: 4C2C461A, MD5: BBDE32AB0691E612812E51CCDFB24676, SHA1: CBA55098143E27629C1D5C6C6CD0B163202EA62B, SHA256: D080C150CFAFD9181A86AF5F6FC08CB17D82FB53291BC5595922D9BF8ED7F7E8, ED2K: 179152EF504932F7B0BF5F02A295C266
Screenshots
screenshotscreenshotscreenshotscreenshotscreenshot
SubtitlesAll Attachments | Honorifics [eng, ASS]
Additional Info
General
Unique ID                                : 75670501757633410752362353703773645334 (0x38ED9BC83DAA297A380DBA60B779AA16)
Complete name                            : [Tensai] Kawaikereba Hentai demo Suki ni Natte Kuremasu ka - 08 [720p 10bit AAC] [4C2C461A].mkv
Format                                   : Matroska
Format version                           : Version 4
File size                                : 131 MiB
Duration                                 : 23 min 40 s
Overall bit rate                         : 774 kb/s
Encoded date                             : UTC 2019-08-27 10:35:05
Writing application                      : mkvmerge v35.0.0 ('All The Love In The World') 32-bit
Writing library                          : libebml v1.3.9 + libmatroska v1.5.2
Attachments                              : NozakiDialogue-Bold.otf / NozakiDialogue-BoldItalic.otf / Quicksand-Bold.otf / !PaulMaul_0.ttf / A-OTF-JunPro-Stripped-Medium_0.ttf / A-OTFSHINMARUGOPROB_0.TTF / CANDY-ROUND-BTN-BOLD_0.TTF / Dosis-Bold_0.ttf / hapole_marker_0.ttf / Sebino-Medium_0.ttf / Letters for Learners_0.ttf

Video
ID                                       : 1
Format                                   : AVC
Format/Info                              : Advanced Video Codec
Format profile                           : High 10@L5
Format settings                          : CABAC / 16 Ref Frames
Format settings, CABAC                   : Yes
Format settings, ReFrames                : 16 frames
Codec ID                                 : V_MPEG4/ISO/AVC
Duration                                 : 23 min 40 s
Bit rate                                 : 607 kb/s
Width                                    : 1 280 pixels
Height                                   : 720 pixels
Display aspect ratio                     : 16:9
Frame rate mode                          : Constant
Frame rate                               : 23.976 (23976/1000) FPS
Color space                              : YUV
Chroma subsampling                       : 4:2:0
Bit depth                                : 10 bits
Scan type                                : Progressive
Bits/(Pixel*Frame)                       : 0.027
Stream size                              : 103 MiB (78%)
Writing library                          : x264 core 133 r2334 a3ac64b
Encoding settings                        : cabac=1 / ref=16 / deblock=1:1:1 / analyse=0x3:0x133 / me=umh / subme=10 / psy=1 / psy_rd=0.40:0.00 / mixed_ref=1 / me_range=24 / chroma_me=1 / trellis=2 / 8x8dct=1 / cqm=0 / deadzone=21,11 / fast_pskip=1 / chroma_qp_offset=-2 / threads=6 / lookahead_threads=1 / sliced_threads=0 / nr=0 / decimate=1 / interlaced=0 / bluray_compat=0 / constrained_intra=0 / bframes=10 / b_pyramid=2 / b_adapt=2 / b_bias=0 / direct=3 / weightb=1 / open_gop=0 / weightp=2 / keyint=250 / keyint_min=23 / scenecut=40 / intra_refresh=0 / rc_lookahead=60 / rc=crf / mbtree=1 / crf=18.0 / qcomp=0.60 / qpmin=0 / qpmax=81 / qpstep=4 / ip_ratio=1.40 / aq=1:0.60
Language                                 : Japanese
Default                                  : Yes
Forced                                   : No

Audio
ID                                       : 2
Format                                   : AAC LC
Format/Info                              : Advanced Audio Codec Low Complexity
Codec ID                                 : A_AAC-2
Duration                                 : 23 min 40 s
Bit rate                                 : 128 kb/s
Channel(s)                               : 2 channels
Channel layout                           : L R
Sampling rate                            : 44.1 kHz
Frame rate                               : 43.066 FPS (1024 SPF)
Compression mode                         : Lossy
Stream size                              : 21.7 MiB (17%)
Language                                 : Japanese
Default                                  : Yes
Forced                                   : No

Text
ID                                       : 3
Format                                   : ASS
Codec ID                                 : S_TEXT/ASS
Codec ID/Info                            : Advanced Sub Station Alpha
Duration                                 : 23 min 33 s
Bit rate                                 : 843 b/s
Count of elements                        : 1726
Compression mode                         : Lossless
Stream size                              : 145 KiB (0%)
Title                                    : Honorifics
Language                                 : English
Default                                  : Yes
Forced                                   : No

Menu
00:00:00.000                             : :Intro
00:01:23.980                             : :OP
00:02:54.000                             : :Story
00:21:55.060                             : :ED
00:23:25.090                             : :Next EP Title
beta
Anime DDL+NZB mirror
Current Time: 06/12/2019 10:53



About/FAQs