File Size205.1 MB (215,048,472 bytes)
DownloadClickNUpload | Jheberg | MultiUp
  • BdUpload
  • DownAce
  • Fichier
  • FileCloud
  • Filerio
  • FilesCdn
  • IndiShare
  • Kbagi
  • Turbobit
  • UpToBox
  • Uppit
| OpenLoad | Sendspace | SolidFiles | ZippyShare
HashesCRC32: F7EEB703, MD5: C5E6E21FEA54EACD1332AC8AD21F4A18, SHA1: 52F9DACE2F55A7056293018DBD52F03E677DBC0E, SHA256: D787CF3D1C980B42F63B56E65C468593058D19A97CE4019E5F5B60B9A84D3AD8, ED2K: 9C8106E1A644733AC22333CFCE98D8C1
Screenshots
screenshotscreenshotscreenshotscreenshotscreenshot
SubtitlesAll Attachments | Honorifics [eng, ASS]
Additional Info
General
Unique ID                                : 178469598483604907425965079216933581926 (0x8643FE903A3134D5054039F0FB543466)
Complete name                            : [Tensai] Enen no Shouboutai - 11 [720p 10bit AAC] [F7EEB703].mkv
Format                                   : Matroska
Format version                           : Version 4
File size                                : 205 MiB
Duration                                 : 23 min 58 s
Overall bit rate                         : 1 196 kb/s
Encoded date                             : UTC 2019-09-21 02:56:09
Writing application                      : mkvmerge v37.0.0 ('Leave It') 64-bit
Writing library                          : libebml v1.3.9 + libmatroska v1.5.2
Attachments                              : NozakiDialogue-Bold_1.otf / NozakiDialogue-BoldItalic_0.otf / ZOMBYE.otf / [KamiFS]_Dragon_Ball_Super_-_011_(720p x264)_[8Bit]_[5F11E9BF]_attachment_OpeningKaraoke[font]_0_0.ttf / absender1_0_0.ttf / GN-Kin-iro_SansSerif_0.ttf / mplus-1c-light_0.ttf / tahomabd_0_0.ttf

Video
ID                                       : 1
Format                                   : AVC
Format/Info                              : Advanced Video Codec
Format profile                           : High 10@L5
Format settings                          : CABAC / 16 Ref Frames
Format settings, CABAC                   : Yes
Format settings, ReFrames                : 16 frames
Codec ID                                 : V_MPEG4/ISO/AVC
Duration                                 : 23 min 57 s
Bit rate                                 : 970 kb/s
Width                                    : 1 280 pixels
Height                                   : 720 pixels
Display aspect ratio                     : 16:9
Frame rate mode                          : Constant
Frame rate                               : 23.976 (24000/1001) FPS
Color space                              : YUV
Chroma subsampling                       : 4:2:0
Bit depth                                : 10 bits
Scan type                                : Progressive
Bits/(Pixel*Frame)                       : 0.044
Stream size                              : 166 MiB (81%)
Writing library                          : x264 core 133 r2334 a3ac64b
Encoding settings                        : cabac=1 / ref=16 / deblock=1:1:1 / analyse=0x3:0x133 / me=umh / subme=10 / psy=1 / psy_rd=0.40:0.00 / mixed_ref=1 / me_range=24 / chroma_me=1 / trellis=2 / 8x8dct=1 / cqm=0 / deadzone=21,11 / fast_pskip=1 / chroma_qp_offset=-2 / threads=6 / lookahead_threads=1 / sliced_threads=0 / nr=0 / decimate=1 / interlaced=0 / bluray_compat=0 / constrained_intra=0 / bframes=10 / b_pyramid=2 / b_adapt=2 / b_bias=0 / direct=3 / weightb=1 / open_gop=0 / weightp=2 / keyint=250 / keyint_min=23 / scenecut=40 / intra_refresh=0 / rc_lookahead=60 / rc=crf / mbtree=1 / crf=18.0 / qcomp=0.60 / qpmin=0 / qpmax=81 / qpstep=4 / ip_ratio=1.40 / aq=1:0.60
Language                                 : Japanese
Default                                  : Yes
Forced                                   : No

Audio
ID                                       : 2
Format                                   : AAC LC
Format/Info                              : Advanced Audio Codec Low Complexity
Codec ID                                 : A_AAC-2
Duration                                 : 23 min 57 s
Bit rate                                 : 202 kb/s
Channel(s)                               : 2 channels
Channel layout                           : L R
Sampling rate                            : 44.1 kHz
Frame rate                               : 43.066 FPS (1024 SPF)
Compression mode                         : Lossy
Stream size                              : 34.6 MiB (17%)
Language                                 : Japanese
Default                                  : Yes
Forced                                   : No

Text
ID                                       : 3
Format                                   : ASS
Codec ID                                 : S_TEXT/ASS
Codec ID/Info                            : Advanced Sub Station Alpha
Duration                                 : 23 min 58 s
Bit rate                                 : 206 b/s
Count of elements                        : 481
Compression mode                         : Lossless
Stream size                              : 36.3 KiB (0%)
Title                                    : Honorifics
Language                                 : English
Default                                  : Yes
Forced                                   : No

Menu
00:00:00.000                             : :Intro
00:01:04.960                             : :OP
00:02:35.010                             : :Part A
00:09:09.360                             : :EP Title
00:09:12.860                             : :Part B
00:13:47.510                             : :Between
00:13:54.020                             : :Part C
00:16:29.210                             : :EP Title 2
00:16:32.720                             : :Part D
00:22:22.070                             : :ED
00:23:52.030                             : :Next Time
beta
Anime DDL+NZB mirror
Current Time: 14/08/2020 02:41



About/FAQs