File Size161.0 MB (168,869,735 bytes)
DownloadClickNUpload | Jheberg | MultiUp
  • BdUpload
  • DownAce
  • Fichier
  • FileCloud
  • Filerio
  • FilesCdn
  • IndiShare
  • Kbagi
  • Turbobit
  • UpToBox
  • Uppit
| OpenLoad | Sendspace | SolidFiles | ZippyShare
HashesCRC32: BD05D539, MD5: F8E09A2F0E2D27CD6778A54E455AFC32, SHA1: 0613E51479B1AFF644DFB00CD3561372B30E5BE4, SHA256: 89EB1E1B10AA64D8665BD47ABEE6E77D895A543FFE076C01C4C071C7FB7A3226, ED2K: CDF6E3B71658C9B96C9BF7DB24C2D8CB
Screenshots
screenshotscreenshotscreenshotscreenshotscreenshot
SubtitlesAll Attachments | Honorifics [jpn, ASS]
Additional Info
General
Unique ID                                : 190779138400011190319255002354752127289 (0x8F86B9BD0C5C19BCE37018F81F3F8139)
Complete name                            : [Tensai] Araburu Kisetsu no Otome-domo yo. - 12 [720p 10bit AAC] [BD05D539].mkv
Format                                   : Matroska
Format version                           : Version 4
File size                                : 161 MiB
Duration                                 : 23 min 42 s
Overall bit rate                         : 950 kb/s
Encoded date                             : UTC 2019-09-22 07:08:47
Writing application                      : mkvmerge v37.0.0 ('Leave It') 64-bit
Writing library                          : libebml v1.3.9 + libmatroska v1.5.2
Attachments                              : NozakiDialogue-Bold_1.otf / Quadraat-Bold.otf / 00243_0.TTF / A-OTF Kaisho MCBK1 Pro MCBK1_0.ttf / BRUSHSTROKE-REGULAR_0.TTF / IWAOMINPRO-FATE-BD_0.TTF / Keage No Moon_0.ttf / UDDigiKyokashoN-B.ttc

Video
ID                                       : 1
Format                                   : AVC
Format/Info                              : Advanced Video Codec
Format profile                           : High 10@L5
Format settings                          : CABAC / 16 Ref Frames
Format settings, CABAC                   : Yes
Format settings, ReFrames                : 16 frames
Codec ID                                 : V_MPEG4/ISO/AVC
Duration                                 : 23 min 42 s
Bit rate                                 : 649 kb/s
Width                                    : 1 280 pixels
Height                                   : 720 pixels
Display aspect ratio                     : 16:9
Frame rate mode                          : Constant
Frame rate                               : 23.976 (24000/1001) FPS
Color space                              : YUV
Chroma subsampling                       : 4:2:0
Bit depth                                : 10 bits
Scan type                                : Progressive
Bits/(Pixel*Frame)                       : 0.029
Stream size                              : 110 MiB (68%)
Writing library                          : x264 core 133 r2334 a3ac64b
Encoding settings                        : cabac=1 / ref=16 / deblock=1:1:1 / analyse=0x3:0x133 / me=umh / subme=10 / psy=1 / psy_rd=0.40:0.00 / mixed_ref=1 / me_range=24 / chroma_me=1 / trellis=2 / 8x8dct=1 / cqm=0 / deadzone=21,11 / fast_pskip=1 / chroma_qp_offset=-2 / threads=6 / lookahead_threads=1 / sliced_threads=0 / nr=0 / decimate=1 / interlaced=0 / bluray_compat=0 / constrained_intra=0 / bframes=10 / b_pyramid=2 / b_adapt=2 / b_bias=0 / direct=3 / weightb=1 / open_gop=0 / weightp=2 / keyint=250 / keyint_min=23 / scenecut=40 / intra_refresh=0 / rc_lookahead=60 / rc=crf / mbtree=1 / crf=18.0 / qcomp=0.60 / qpmin=0 / qpmax=81 / qpstep=4 / ip_ratio=1.40 / aq=1:0.60
Language                                 : Japanese
Default                                  : Yes
Forced                                   : No

Audio
ID                                       : 2
Format                                   : AAC LC
Format/Info                              : Advanced Audio Codec Low Complexity
Codec ID                                 : A_AAC-2
Duration                                 : 23 min 41 s
Bit rate                                 : 206 kb/s
Channel(s)                               : 2 channels
Channel layout                           : L R
Sampling rate                            : 44.1 kHz
Frame rate                               : 43.066 FPS (1024 SPF)
Compression mode                         : Lossy
Stream size                              : 34.9 MiB (22%)
Language                                 : Japanese
Default                                  : Yes
Forced                                   : No

Text
ID                                       : 3
Format                                   : ASS
Codec ID                                 : S_TEXT/ASS
Codec ID/Info                            : Advanced Sub Station Alpha
Duration                                 : 23 min 40 s
Bit rate                                 : 200 b/s
Count of elements                        : 528
Compression mode                         : Lossless
Stream size                              : 34.8 KiB (0%)
Title                                    : Honorifics
Language                                 : Japanese
Default                                  : Yes
Forced                                   : No

Menu
00:00:00.000                             : :Intro
00:02:04.560                             : :Part A
00:06:51.050                             : :Between
00:06:53.050                             : :Part B
00:20:47.600                             : :Final Ep OP
00:23:37.100                             : :The End
beta
Anime DDL+NZB mirror
Current Time: 04/12/2020 19:40



About/FAQs