File Size212.7 MB (223,073,842 bytes)
DownloadClickNUpload | Jheberg | MultiUp
  • BdUpload
  • DownAce
  • Fichier
  • FileCloud
  • Filerio
  • FilesCdn
  • IndiShare
  • Kbagi
  • Turbobit
  • UpToBox
  • Uppit
| OpenLoad | Sendspace | SolidFiles | ZippyShare
HashesCRC32: 8CA981D8, MD5: 78B4301E53D1B210E91FC7FE98914470, SHA1: 9A0E5C00F7E8DAA68523869F7D7C198B598FEDF2, SHA256: 3F67FA91CAEE5EEE56B9BEFAE8DB1F73B2F34ADCC0841F400168D08981EC2EAD, ED2K: DDB3DD3A632C9704CAC3CF22E828C26F
Screenshots
screenshotscreenshotscreenshotscreenshotscreenshot
SubtitlesAll Attachments | eng [ASS]
Additional Info
General
Unique ID                                : 283732411799264016237621614462242338061 (0xD574DFF3666F1B28527B1D421AC7350D)
Complete name                            : [Tensai] Araburu Kisetsu no Otome-domo yo. - 09 [720p 10bit AAC] [8CA981D8].mkv
Format                                   : Matroska
Format version                           : Version 4
File size                                : 213 MiB
Duration                                 : 23 min 40 s
Overall bit rate                         : 1 256 kb/s
Encoded date                             : UTC 2019-09-03 04:43:26
Writing application                      : mkvmerge v37.0.0 ('Leave It') 64-bit
Writing library                          : libebml v1.3.9 + libmatroska v1.5.2
Attachments                              : AdobeFanHeitiStd-Bold.otf / NozakiDialogue-Bold_1.otf / 00243_0.TTF / Aller_0.ttf / Amienne_0.ttf / brush-hyouka_0.ttf / Bubblegum_0.ttf / Luna_0.ttf

Video
ID                                       : 1
Format                                   : AVC
Format/Info                              : Advanced Video Codec
Format profile                           : High 10@L5
Format settings                          : CABAC / 16 Ref Frames
Format settings, CABAC                   : Yes
Format settings, ReFrames                : 16 frames
Codec ID                                 : V_MPEG4/ISO/AVC
Duration                                 : 23 min 40 s
Bit rate                                 : 1 009 kb/s
Width                                    : 1 280 pixels
Height                                   : 720 pixels
Display aspect ratio                     : 16:9
Frame rate mode                          : Constant
Frame rate                               : 23.976 (24000/1001) FPS
Color space                              : YUV
Chroma subsampling                       : 4:2:0
Bit depth                                : 10 bits
Scan type                                : Progressive
Bits/(Pixel*Frame)                       : 0.046
Stream size                              : 171 MiB (80%)
Writing library                          : x264 core 133 r2334 a3ac64b
Encoding settings                        : cabac=1 / ref=16 / deblock=1:1:1 / analyse=0x3:0x133 / me=umh / subme=10 / psy=1 / psy_rd=0.40:0.00 / mixed_ref=1 / me_range=24 / chroma_me=1 / trellis=2 / 8x8dct=1 / cqm=0 / deadzone=21,11 / fast_pskip=1 / chroma_qp_offset=-2 / threads=6 / lookahead_threads=1 / sliced_threads=0 / nr=0 / decimate=1 / interlaced=0 / bluray_compat=0 / constrained_intra=0 / bframes=10 / b_pyramid=2 / b_adapt=2 / b_bias=0 / direct=3 / weightb=1 / open_gop=0 / weightp=2 / keyint=250 / keyint_min=23 / scenecut=40 / intra_refresh=0 / rc_lookahead=60 / rc=crf / mbtree=1 / crf=18.0 / qcomp=0.60 / qpmin=0 / qpmax=81 / qpstep=4 / ip_ratio=1.40 / aq=1:0.60
Language                                 : Japanese
Default                                  : Yes
Forced                                   : No

Audio
ID                                       : 2
Format                                   : AAC LC
Format/Info                              : Advanced Audio Codec Low Complexity
Codec ID                                 : A_AAC-2
Duration                                 : 23 min 40 s
Bit rate                                 : 207 kb/s
Channel(s)                               : 2 channels
Channel layout                           : L R
Sampling rate                            : 44.1 kHz
Frame rate                               : 43.066 FPS (1024 SPF)
Compression mode                         : Lossy
Stream size                              : 35.1 MiB (17%)
Language                                 : Japanese
Default                                  : Yes
Forced                                   : No

Text
ID                                       : 3
Format                                   : ASS
Codec ID                                 : S_TEXT/ASS
Codec ID/Info                            : Advanced Sub Station Alpha
Duration                                 : 23 min 40 s
Bit rate                                 : 914 b/s
Count of elements                        : 1481
Compression mode                         : Lossless
Stream size                              : 158 KiB (0%)
Language                                 : English
Default                                  : Yes
Forced                                   : No

Menu
00:00:00.000                             : :Intro
00:01:53.630                             : :OP
00:03:23.550                             : :Part A
00:13:37.580                             : :Between
00:13:39.590                             : :Part B
00:21:56.620                             : :ED
00:23:26.590                             : :Next EP Title
beta
Anime DDL+NZB mirror
Current Time: 27/09/2020 21:20



About/FAQs