File Size119.3 MB (125,102,030 bytes)
DownloadClickNUpload | Jheberg | MultiUp
  • BdUpload
  • DownAce
  • Fichier
  • FileCloud
  • Filerio
  • FilesCdn
  • IndiShare
  • Kbagi
  • Turbobit
  • UpToBox
  • Uppit
| OpenLoad | Sendspace | SolidFiles | ZippyShare
HashesCRC32: E3E90FD1, MD5: 9DD4D7C18FE68E9D202196746A41D534, SHA1: A3DB338617054D60440222867C72E13AC4AE86CC, SHA256: DCE96A4A0B0833A02E3518F6F70651A3E42F6A24D842DC1A4417B0993F075F85, ED2K: 943DB7D2104E70E1D70EA923BE118B4E
Screenshots
screenshotscreenshotscreenshotscreenshotscreenshot
SubtitlesAll Attachments | NeSubs [eng, ASS], Netflix Japan [jpn, SRT]
Additional Info
General
Unique ID                                : 200769375051102586215652960923980060952 (0x970AC66F187396D6808F72CF8346D918)
Complete name                            : [Teasing Anon] Karakai Jouzu no Takagi-san S2 - 09 [480p].mkv
Format                                   : Matroska
Format version                           : Version 4
File size                                : 119 MiB
Duration                                 : 23 min 42 s
Overall bit rate                         : 704 kb/s
Movie name                               : [Teasing Anon] Karakai Jouzu no Takagi-san S2 - 09 [480p]
Encoded date                             : UTC 2019-09-03 08:46:40
Writing application                      : mkvmerge v8.3.0 ('Over the Horizon') 64bit
Writing library                          : libebml v1.3.1 + libmatroska v1.4.2
Attachments                              : georgiab.ttf / High Tower Text.TTF / HOT-KyoMurasakiStd-E.otf / LibreBaskerville-Bold.ttf / seguisb.ttf / Aller.ttf / Balloon Lettering.ttf / calligrapherregular.ttf / Comfortaa Regular 0.ttf / COMICS REGULAR.TTF

Video
ID                                       : 1
Format                                   : AVC
Format/Info                              : Advanced Video Codec
Format profile                           : High@L4.1
Format settings                          : CABAC / 5 Ref Frames
Format settings, CABAC                   : Yes
Format settings, ReFrames                : 5 frames
Codec ID                                 : V_MPEG4/ISO/AVC
Duration                                 : 23 min 42 s
Bit rate                                 : 536 kb/s
Width                                    : 848 pixels
Height                                   : 480 pixels
Display aspect ratio                     : 16:9
Frame rate mode                          : Constant
Frame rate                               : 23.976 (24000/1001) FPS
Color space                              : YUV
Chroma subsampling                       : 4:2:0
Bit depth                                : 8 bits
Scan type                                : Progressive
Bits/(Pixel*Frame)                       : 0.055
Stream size                              : 90.9 MiB (76%)
Title                                    : Karakai Jouzu no Takagi-san Episode 09
Writing library                          : x264 core 152 r2851kMod ba24899
Encoding settings                        : cabac=1 / ref=5 / deblock=1:0:0 / analyse=0x3:0x133 / me=tesa / subme=11 / psy=1 / fade_compensate=0.30 / psy_rd=1.00:0.00 / mixed_ref=1 / me_range=32 / chroma_me=1 / trellis=2 / 8x8dct=1 / cqm=0 / deadzone=21,11 / fast_pskip=1 / chroma_qp_offset=-2 / threads=15 / lookahead_threads=1 / sliced_threads=0 / nr=0 / decimate=1 / interlaced=0 / bluray_compat=0 / constrained_intra=0 / bframes=10 / b_pyramid=2 / b_adapt=2 / b_bias=0 / direct=3 / weightb=1 / open_gop=0 / weightp=2 / keyint=240 / keyint_min=23 / scenecut=40 / intra_refresh=0 / rc_lookahead=40 / rc=crf / mbtree=1 / crf=18.0000 / qcomp=0.60 / qpmin=0 / qpmax=69 / qpstep=4 / vbv_maxrate=62500 / vbv_bufsize=78125 / crf_max=0.0 / nal_hrd=none / filler=0 / ip_ratio=1.40 / aq=3:1.00
Language                                 : Japanese
Default                                  : Yes
Forced                                   : No

Audio
ID                                       : 2
Format                                   : E-AC-3
Format/Info                              : Enhanced AC-3
Commercial name                          : Dolby Digital Plus
Codec ID                                 : A_EAC3
Duration                                 : 23 min 42 s
Bit rate mode                            : Constant
Bit rate                                 : 128 kb/s
Channel(s)                               : 2 channels
Channel layout                           : L R
Sampling rate                            : 48.0 kHz
Frame rate                               : 31.250 FPS (1536 SPF)
Compression mode                         : Lossy
Stream size                              : 21.7 MiB (18%)
Title                                    : EAC3
Language                                 : Japanese
Service kind                             : Complete Main
Default                                  : Yes
Forced                                   : No

Text #1
ID                                       : 3
Format                                   : ASS
Codec ID                                 : S_TEXT/ASS
Codec ID/Info                            : Advanced Sub Station Alpha
Duration                                 : 23 min 37 s
Bit rate                                 : 1 141 b/s
Count of elements                        : 1361
Compression mode                         : Lossless
Stream size                              : 198 KiB (0%)
Title                                    : NeSubs
Language                                 : English
Default                                  : Yes
Forced                                   : No

Text #2
ID                                       : 4
Format                                   : UTF-8
Codec ID                                 : S_TEXT/UTF8
Codec ID/Info                            : UTF-8 Plain Text
Duration                                 : 23 min 39 s
Bit rate                                 : 69 b/s
Count of elements                        : 376
Stream size                              : 12.0 KiB (0%)
Title                                    : Netflix Japan
Language                                 : Japanese
Default                                  : No
Forced                                   : No

Menu
00:00:00.000                             : en:Episode 09
00:00:01.000                             : en:Opening
00:01:31.007                             : en:Part A
00:06:24.258                             : en:Part B
00:08:05.943                             : en:Part C
00:14:58.939                             : en:Part D
00:22:10.954                             : en:Ending
beta
Anime DDL+NZB mirror
Current Time: 06/12/2019 21:12



About/FAQs