File Size560.8 MB (588,054,282 bytes)
DownloadAnonFiles | ClickNUpload | DropAPK | Free
MultiUp: Part1
  • BdUpload
  • DownAce
  • Fichier
  • FileCloud
  • Filerio
  • FilesCdn
  • IndiShare
  • Kbagi
  • Turbobit
  • UpToBox
  • Uppit
, Part2
  • BdUpload
  • DownAce
  • Fichier
  • FileCloud
  • Filerio
  • FilesCdn
  • IndiShare
  • Kbagi
  • Turbobit
  • UpToBox
  • Uppit

Sendspace: Part1, Part2
SolidFiles: Part1, Part2
ZippyShare: Part1, Part2
HashesCRC32: D0A2E5CF, MD5: 3BB975D5A1870409D56C16B5EC22E950, SHA1: 8E42CC967FC221C564F12AF8679ACC7AEB2A3264, SHA256: 65A6E15C800C6806FDE28A5CD0CC3A2BC7D2B9B2503C7B97BA28097D1B05513D, ED2K: 48A0C05F435752272F77A8B18B839D76
Screenshots
screenshotscreenshotscreenshotscreenshotscreenshot
Additional Info
General
Complete name                            : Sword Art Online - Alicization - War of Underworld - 12 - Ray of Light [KaiDubs] [720p].mp4
Format                                   : MPEG-4
Format profile                           : Base Media
Codec ID                                 : isom (isom/iso2/avc1/mp41)
File size                                : 561 MiB
Duration                                 : 22 min 1 s
Overall bit rate mode                    : Variable
Overall bit rate                         : 3 560 kb/s
Movie name                               : Ripped by KaiDubs
Writing application                      : Lavf58.42.100

Video
ID                                       : 1
Format                                   : AVC
Format/Info                              : Advanced Video Codec
Format profile                           : Main@L3.1
Format settings                          : CABAC / 4 Ref Frames
Format settings, CABAC                   : Yes
Format settings, ReFrames                : 4 frames
Format settings, GOP                     : M=3, N=60
Codec ID                                 : avc1
Codec ID/Info                            : Advanced Video Coding
Duration                                 : 22 min 1 s
Bit rate                                 : 3 426 kb/s
Width                                    : 1 280 pixels
Height                                   : 720 pixels
Display aspect ratio                     : 16:9
Frame rate mode                          : Variable
Frame rate                               : 29.970 (29970/1000) FPS
Minimum frame rate                       : 29.960 FPS
Maximum frame rate                       : 29.970 FPS
Color space                              : YUV
Chroma subsampling                       : 4:2:0
Bit depth                                : 8 bits
Scan type                                : Progressive
Bits/(Pixel*Frame)                       : 0.124
Stream size                              : 540 MiB (96%)
Title                                    : Adult Swim
Language                                 : English
Codec configuration box                  : avcC

Audio
ID                                       : 2
Format                                   : AAC LC
Format/Info                              : Advanced Audio Codec Low Complexity
Codec ID                                 : mp4a-40-2
Duration                                 : 22 min 1 s
Bit rate mode                            : Constant
Bit rate                                 : 126 kb/s
Channel(s)                               : 2 channels
Channel layout                           : L R
Sampling rate                            : 44.1 kHz
Frame rate                               : 43.066 FPS (1024 SPF)
Compression mode                         : Lossy
Stream size                              : 19.8 MiB (4%)
Title                                    : 2.0 AAC
Language                                 : English
Default                                  : Yes
Alternate group                          : 1

Text
ID                                       : 3
Format                                   : Timed Text
Muxing mode                              : sbtl
Codec ID                                 : tx3g
Duration                                 : 21 min 54 s
Bit rate mode                            : Variable
Bit rate                                 : 73 b/s
Stream size                              : 11.6 KiB (0%)
Title                                    : Closed Captions
Language                                 : English
Default                                  : Yes
Forced                                   : No
Alternate group                          : 3
beta
Anime DDL+NZB mirror
Current Time: 16/01/2021 21:52



About/FAQs