File Size15.41 MB (16,159,649 bytes)
DownloadClickNUpload | DropAPK | Free | MultiUp
  • BdUpload
  • DownAce
  • Fichier
  • FileCloud
  • Filerio
  • FilesCdn
  • IndiShare
  • Kbagi
  • Turbobit
  • UpToBox
  • Uppit
| Sendspace | SolidFiles | ZippyShare
HashesCRC32: 198521DE, MD5: 32818CE5D77182F3F9BC087655350156, SHA1: 3AB07534425E646DC7DDFFCA7F580F366177C94C, SHA256: 723C94DCF02E727DEA85AB72796A055AE3C42452B7ABA9CA8982034967525E4E, ED2K: 4FBB6019EDEF21014DBDA0D033F1DF3B
Screenshots
screenshot
Additional Info
General
Complete name                            : Sword Art Online - Alicization - War of Underworld - 10 - Sneak Peek [KaiDubs] [1080p] [198521DE].mp4
Format                                   : MPEG-4
Format profile                           : Base Media
Codec ID                                 : isom (isom/iso2/avc1/mp41)
File size                                : 15.4 MiB
Duration                                 : 14 s 982 ms
Overall bit rate mode                    : Variable
Overall bit rate                         : 8 629 kb/s
Writing application                      : Lavf58.40.100

Video
ID                                       : 1
Format                                   : AVC
Format/Info                              : Advanced Video Codec
Format profile                           : High@L4
Format settings                          : CABAC / 2 Ref Frames
Format settings, CABAC                   : Yes
Format settings, ReFrames                : 2 frames
Codec ID                                 : avc1
Codec ID/Info                            : Advanced Video Coding
Duration                                 : 14 s 982 ms
Bit rate mode                            : Constant
Bit rate                                 : 8 500 kb/s
Width                                    : 1 920 pixels
Height                                   : 1 080 pixels
Display aspect ratio                     : 16:9
Frame rate mode                          : Constant
Frame rate                               : 29.970 (30000/1001) FPS
Color space                              : YUV
Chroma subsampling                       : 4:2:0
Bit depth                                : 8 bits
Scan type                                : Progressive
Bits/(Pixel*Frame)                       : 0.137
Stream size                              : 15.2 MiB (98%)
Codec configuration box                  : avcC

Audio
ID                                       : 2
Format                                   : AAC LC
Format/Info                              : Advanced Audio Codec Low Complexity
Codec ID                                 : mp4a-40-2
Duration                                 : 14 s 977 ms
Bit rate mode                            : Variable
Bit rate                                 : 126 kb/s
Maximum bit rate                         : 133 kb/s
Channel(s)                               : 2 channels
Channel layout                           : L R
Sampling rate                            : 44.1 kHz
Frame rate                               : 43.066 FPS (1024 SPF)
Compression mode                         : Lossy
Stream size                              : 230 KiB (1%)
Language                                 : English
Default                                  : Yes
Alternate group                          : 1
beta
Anime DDL+NZB mirror
Current Time: 24/01/2021 05:29



About/FAQs