File Size562.9 MB (590,202,241 bytes)
DownloadClickNUpload | DropAPK | Jheberg
  • 1Fichier
  • 2Giga
  • BDupload
  • ClicknUpload
  • Filerio
  • FilesCDN
  • FilesUpload
  • Free
  • MegaUp
  • Nitroflare
  • Openload
  • ShareOnline
  • Turbobit
  • Tusfiles
  • Uppit
  • Uptobox
  • ddlTo

MultiUp: Part1
  • BdUpload
  • DownAce
  • Fichier
  • FileCloud
  • Filerio
  • FilesCdn
  • IndiShare
  • Kbagi
  • Turbobit
  • UpToBox
  • Uppit
, Part2
  • BdUpload
  • DownAce
  • Fichier
  • FileCloud
  • Filerio
  • FilesCdn
  • IndiShare
  • Kbagi
  • Turbobit
  • UpToBox
  • Uppit

Sendspace: Part1, Part2
SolidFiles: Part1, Part2
ZippyShare: Part1, Part2
HashesCRC32: 15631F6D, MD5: CEF24D7195B4EFEB458733BEBB7CAA52, SHA1: 01E5B56C9F906952545E08C3E0609C863392CEF1, SHA256: FA4A5F04EBD050494223EA4D585C848EB836675AEB53829539C5F27A86D7C7F7, ED2K: 9301C06B63F9E268EC5FCF017B5B105A
Screenshots
screenshotscreenshotscreenshotscreenshotscreenshot
Additional Info
General
Complete name                            : Sword Art Online - Alicization - War of Underworld - 07 - Stigma of the Disqualified [KaiDubs] [720p].mp4
Format                                   : MPEG-4
Format profile                           : Base Media
Codec ID                                 : isom (isom/iso2/avc1/mp41)
File size                                : 563 MiB
Duration                                 : 22 min 1 s
Overall bit rate mode                    : Variable
Overall bit rate                         : 3 573 kb/s
Movie name                               : Ripped by KaiDubs
Writing application                      : Lavf58.37.100

Video
ID                                       : 1
Format                                   : AVC
Format/Info                              : Advanced Video Codec
Format profile                           : Main@L3.1
Format settings                          : CABAC / 4 Ref Frames
Format settings, CABAC                   : Yes
Format settings, ReFrames                : 4 frames
Format settings, GOP                     : M=3, N=60
Codec ID                                 : avc1
Codec ID/Info                            : Advanced Video Coding
Duration                                 : 22 min 1 s
Bit rate                                 : 3 439 kb/s
Width                                    : 1 280 pixels
Height                                   : 720 pixels
Display aspect ratio                     : 16:9
Frame rate mode                          : Variable
Frame rate                               : 29.970 (29970/1000) FPS
Minimum frame rate                       : 29.960 FPS
Maximum frame rate                       : 29.970 FPS
Color space                              : YUV
Chroma subsampling                       : 4:2:0
Bit depth                                : 8 bits
Scan type                                : Progressive
Bits/(Pixel*Frame)                       : 0.124
Stream size                              : 542 MiB (96%)
Title                                    : Adult Swim
Language                                 : English
Codec configuration box                  : avcC

Audio
ID                                       : 2
Format                                   : AAC LC
Format/Info                              : Advanced Audio Codec Low Complexity
Codec ID                                 : mp4a-40-2
Duration                                 : 22 min 1 s
Bit rate mode                            : Constant
Bit rate                                 : 126 kb/s
Channel(s)                               : 2 channels
Channel layout                           : L R
Sampling rate                            : 44.1 kHz
Frame rate                               : 43.066 FPS (1024 SPF)
Compression mode                         : Lossy
Stream size                              : 19.8 MiB (4%)
Title                                    : 2.0 AAC
Language                                 : English
Default                                  : Yes
Alternate group                          : 1

Text
ID                                       : 3
Format                                   : Timed Text
Muxing mode                              : sbtl
Codec ID                                 : tx3g
Duration                                 : 21 min 14 s
Bit rate mode                            : Variable
Bit rate                                 : 71 b/s
Stream size                              : 11.1 KiB (0%)
Title                                    : Closed Captions
Language                                 : English
Default                                  : Yes
Forced                                   : No
Alternate group                          : 3
beta
Anime DDL+NZB mirror
Current Time: 16/01/2021 20:01



About/FAQs