Suzume.no.Tojimari.2022.1080p.WEB-DL.x265.10bits.OPUS.mkv


File Size1.947 GB (2,090,664,325 bytes)
DownloadClickNUpload | GoFile | MdiaLoad
DownloadGG: Part1, Part2
KrakenFiles: Part1, Part2
MultiUp: Part1
  • BdUpload
  • DownAce
  • Fichier
  • FileCloud
  • Filerio
  • FilesCdn
  • IndiShare
  • Kbagi
  • Turbobit
  • UpToBox
  • Uppit
, Part2
  • BdUpload
  • DownAce
  • Fichier
  • FileCloud
  • Filerio
  • FilesCdn
  • IndiShare
  • Kbagi
  • Turbobit
  • UpToBox
  • Uppit
, Part3
  • BdUpload
  • DownAce
  • Fichier
  • FileCloud
  • Filerio
  • FilesCdn
  • IndiShare
  • Kbagi
  • Turbobit
  • UpToBox
  • Uppit
, Part4
  • BdUpload
  • DownAce
  • Fichier
  • FileCloud
  • Filerio
  • FilesCdn
  • IndiShare
  • Kbagi
  • Turbobit
  • UpToBox
  • Uppit
HashesCRC32: 924C8890, MD5: 0FA993C5A6EEA84A8FB58E10B3EB063B, SHA1: 4C2C0A1B59D4DB83FBD5CFE9CA1820AAA8E431C6, SHA256: E25401651C7F9CA34A322E86192A0CB018827D4DFEF437AC8449A109A8BC7A8F, ED2K: 5922CD547F27D153AE1C310B15F39131
Screenshots
screenshotscreenshotscreenshotscreenshotscreenshot
SubtitlesAll Attachments | eng [ASS]
Additional Info
General
Unique ID                                : 80173821033960749520262468703867018011 (0x3C50EA9092F477A7CBD540B487E69B1B)
Complete name                            : Suzume.no.Tojimari.2022.1080p.WEB-DL.x265.10bits.OPUS.mkv
Format                                   : Matroska
Format version                           : Version 4
File size                                : 1.95 GiB
Duration                                 : 2 h 1 min
Overall bit rate                         : 2 295 kb/s
Encoded date                             : UTC 2023-07-13 14:44:23
Writing application                      : mkvmerge v78.0 ('Running') 64-bit
Writing library                          : libebml v1.4.4 + libmatroska v1.7.1 / Lavf60.10.100

Video
ID                                       : 1
Format                                   : HEVC
Format/Info                              : High Efficiency Video Coding
Format profile                           : Main 10@L4@Main
Codec ID                                 : V_MPEGH/ISO/HEVC
Duration                                 : 2 h 1 min
Bit rate                                 : 2 069 kb/s
Width                                    : 1 920 pixels
Height                                   : 802 pixels
Display aspect ratio                     : 2.40:1
Frame rate mode                          : Constant
Frame rate                               : 24.000 FPS
Color space                              : YUV
Chroma subsampling                       : 4:2:0
Bit depth                                : 10 bits
Bits/(Pixel*Frame)                       : 0.056
Stream size                              : 1.76 GiB (90%)
Writing library                          : Lavc60.22.100 hevc_nvenc
Language                                 : Japanese
Default                                  : Yes
Forced                                   : No
Color range                              : Limited
Color primaries                          : BT.709
Transfer characteristics                 : BT.709
Matrix coefficients                      : BT.709

Audio
ID                                       : 2
Format                                   : Opus
Codec ID                                 : A_OPUS
Duration                                 : 2 h 1 min
Bit rate                                 : 223 kb/s
Channel(s)                               : 6 channels
Channel layout                           : L R C Lb Rb LFE
Sampling rate                            : 48.0 kHz
Frame rate                               : 50.000 FPS (960 SPF)
Bit depth                                : 32 bits
Compression mode                         : Lossy
Stream size                              : 194 MiB (10%)
Writing library                          : Lavc60.22.100 libopus
Language                                 : Japanese
Default                                  : Yes
Forced                                   : No

Text
ID                                       : 3
Format                                   : ASS
Codec ID                                 : S_TEXT/ASS
Codec ID/Info                            : Advanced Sub Station Alpha
Duration                                 : 1 h 59 min
Bit rate                                 : 101 b/s
Count of elements                        : 2032
Compression mode                         : Lossless
Stream size                              : 88.9 KiB (0%)
Writing library                          : Lavc60.22.100 ssa
Language                                 : English
Default                                  : Yes
Forced                                   : No

Menu
00:00:00.000                             : :Chapter 1
00:14:00.833                             : :Chapter 2
00:31:26.791                             : :Chapter 3
00:43:50.916                             : :Chapter 4
00:57:51.583                             : :Chapter 5
01:15:30.708                             : :Chapter 6
01:33:25.541                             : :Chapter 7
01:45:43.666                             : :Chapter 8
01:56:47.083                             : :Chapter 9
beta
Anime DDL+NZB mirror
Current Time: 13/07/2024 13:24



About/FAQs

Discord