File Size7.633 GB (8,196,332,794 bytes)
DownloadClickNUpload: Part1, Part2, Part3, Part4
DailyUploads: Part1, Part2, Part3, Part4, Part5, Part6, Part7, Part8
DownloadGG: Part1, Part2, Part3, Part4, Part5, Part6, Part7, Part8
GoFile: Part1, Part2, Part3, Part4
KrakenFiles: Part1, Part2, Part3, Part4, Part5, Part6, Part7, Part8
MdiaLoad: Part1, Part2, Part3, Part4
MultiUp: Part1
  • BdUpload
  • DownAce
  • Fichier
  • FileCloud
  • Filerio
  • FilesCdn
  • IndiShare
  • Kbagi
  • Turbobit
  • UpToBox
  • Uppit
, Part2
  • BdUpload
  • DownAce
  • Fichier
  • FileCloud
  • Filerio
  • FilesCdn
  • IndiShare
  • Kbagi
  • Turbobit
  • UpToBox
  • Uppit
, Part3
  • BdUpload
  • DownAce
  • Fichier
  • FileCloud
  • Filerio
  • FilesCdn
  • IndiShare
  • Kbagi
  • Turbobit
  • UpToBox
  • Uppit
, Part4
  • BdUpload
  • DownAce
  • Fichier
  • FileCloud
  • Filerio
  • FilesCdn
  • IndiShare
  • Kbagi
  • Turbobit
  • UpToBox
  • Uppit
, Part5
  • BdUpload
  • DownAce
  • Fichier
  • FileCloud
  • Filerio
  • FilesCdn
  • IndiShare
  • Kbagi
  • Turbobit
  • UpToBox
  • Uppit
, Part6
  • BdUpload
  • DownAce
  • Fichier
  • FileCloud
  • Filerio
  • FilesCdn
  • IndiShare
  • Kbagi
  • Turbobit
  • UpToBox
  • Uppit
, Part7
  • BdUpload
  • DownAce
  • Fichier
  • FileCloud
  • Filerio
  • FilesCdn
  • IndiShare
  • Kbagi
  • Turbobit
  • UpToBox
  • Uppit
, Part8
  • BdUpload
  • DownAce
  • Fichier
  • FileCloud
  • Filerio
  • FilesCdn
  • IndiShare
  • Kbagi
  • Turbobit
  • UpToBox
  • Uppit
, Part9
  • BdUpload
  • DownAce
  • Fichier
  • FileCloud
  • Filerio
  • FilesCdn
  • IndiShare
  • Kbagi
  • Turbobit
  • UpToBox
  • Uppit
, Part10
  • BdUpload
  • DownAce
  • Fichier
  • FileCloud
  • Filerio
  • FilesCdn
  • IndiShare
  • Kbagi
  • Turbobit
  • UpToBox
  • Uppit
, Part11
  • BdUpload
  • DownAce
  • Fichier
  • FileCloud
  • Filerio
  • FilesCdn
  • IndiShare
  • Kbagi
  • Turbobit
  • UpToBox
  • Uppit
, Part12
  • BdUpload
  • DownAce
  • Fichier
  • FileCloud
  • Filerio
  • FilesCdn
  • IndiShare
  • Kbagi
  • Turbobit
  • UpToBox
  • Uppit
, Part13
  • BdUpload
  • DownAce
  • Fichier
  • FileCloud
  • Filerio
  • FilesCdn
  • IndiShare
  • Kbagi
  • Turbobit
  • UpToBox
  • Uppit
, Part14
  • BdUpload
  • DownAce
  • Fichier
  • FileCloud
  • Filerio
  • FilesCdn
  • IndiShare
  • Kbagi
  • Turbobit
  • UpToBox
  • Uppit
, Part15
  • BdUpload
  • DownAce
  • Fichier
  • FileCloud
  • Filerio
  • FilesCdn
  • IndiShare
  • Kbagi
  • Turbobit
  • UpToBox
  • Uppit
, Part16
  • BdUpload
  • DownAce
  • Fichier
  • FileCloud
  • Filerio
  • FilesCdn
  • IndiShare
  • Kbagi
  • Turbobit
  • UpToBox
  • Uppit

Uppit: Part1, Part2, Part3, Part4, Part5, Part6, Part7, Part8
HashesCRC32: 484136C4, MD5: 9973DF4BC27B3765256120839D58555D, SHA1: FD942B94BAB97B64926F9C8941C50A938E7AA704, SHA256: DB08FA8672EC7D3D08D6EEAC84689E8ED2A548412AFD611101F86F7CE5E8D381, ED2K: 57BDD4B67FD09A26F5A1CEB041CEEE93
Screenshots
screenshotscreenshotscreenshotscreenshotscreenshot
SubtitlesAll Attachments | English [SDH] [eng, SRT], English (United States) [Full] [eng, ASS], French (France) [Full] [fre, ASS], German (Germany) [Full] [ger, ASS], Italian (Italy) [Full] [ita, ASS], Polish (Poland) [Full] [pol, ASS], Portuguese (Brazil) [Full] [por, ASS], Portuguese (Portugal) [Full] [por, ASS], Russian (Russia) [Full] [rus, ASS], Spanish (Latin America) [Full] [spa, ASS], Spanish (Spain) [Full] [spa, ASS]
Additional Info
General
Complete name                            : Suzume (2022) MULTi 1080p WEB x264 AAC -Tsundere-Raws (CR).mkv
Format                                   : Matroska
Format version                           : Version 4
File size                                : 7.63 GiB
Duration                                 : 2 h 1 min
Overall bit rate                         : 9 009 kb/s
Frame rate                               : 24.000 FPS
Movie name                               : Suzume (2022) MULTi 1080p WEB x264 AAC -Tsundere-Raws (CR)
Writing application                      : mkvmerge v79.0 ('Funeral Pyres') 64-bit
Writing library                          : libebml v1.4.4 + libmatroska v1.7.1
Attachments                              : tahoma.ttf / trebuc.ttf / times.ttf / trebucbd.ttf / georgia.ttf / verdanab.ttf / georgiab.ttf / courbd.ttf / comicbd.ttf / arialbd.ttf / trebucit.ttf / trebucbi.ttf / arial.ttf / timesbd.ttf / timesi.ttf / arialbi.ttf / impact.ttf

Video
ID                                       : 1
Format                                   : AVC
Format/Info                              : Advanced Video Codec
Format profile                           : High@L4
Format settings                          : CABAC / 4 Ref Frames
Format settings, CABAC                   : Yes
Format settings, Reference frames        : 4 frames
Codec ID                                 : V_MPEG4/ISO/AVC
Duration                                 : 2 h 1 min
Bit rate                                 : 8 000 kb/s
Width                                    : 1 920 pixels
Height                                   : 1 080 pixels
Display aspect ratio                     : 16:9
Frame rate mode                          : Constant
Frame rate                               : 24.000 FPS
Color space                              : YUV
Chroma subsampling                       : 4:2:0
Bit depth                                : 8 bits
Scan type                                : Progressive
Bits/(Pixel*Frame)                       : 0.161
Stream size                              : 6.75 GiB (88%)
Writing library                          : x264 core 164
Encoding settings                        : cabac=1 / ref=4 / deblock=1:1:1 / analyse=0x3:0x113 / me=hex / subme=8 / psy=1 / psy_rd=0.40:0.00 / mixed_ref=1 / me_range=16 / chroma_me=1 / trellis=2 / 8x8dct=1 / cqm=0 / deadzone=21,11 / fast_pskip=1 / chroma_qp_offset=-2 / threads=12 / lookahead_threads=2 / sliced_threads=0 / nr=0 / decimate=1 / interlaced=0 / bluray_compat=0 / constrained_intra=0 / bframes=0 / weightp=2 / keyint=96 / keyint_min=48 / scenecut=40 / intra_refresh=0 / rc_lookahead=48 / rc=2pass / mbtree=1 / bitrate=8000 / ratetol=1.0 / qcomp=0.60 / qpmin=0 / qpmax=69 / qpstep=4 / cplxblur=20.0 / qblur=0.5 / vbv_maxrate=12000 / vbv_bufsize=18000 / nal_hrd=none / filler=0 / ip_ratio=1.40 / aq=1:0.60
Default                                  : Yes
Forced                                   : No

Audio #1
ID                                       : 2
Format                                   : AAC LC
Format/Info                              : Advanced Audio Codec Low Complexity
Codec ID                                 : A_AAC-2
Duration                                 : 2 h 1 min
Bit rate                                 : 128 kb/s
Channel(s)                               : 2 channels
Channel layout                           : L R
Sampling rate                            : 44.1 kHz
Frame rate                               : 43.066 FPS (1024 SPF)
Compression mode                         : Lossy
Stream size                              : 111 MiB (1%)
Title                                    : Italian (Italy)
Language                                 : Italian (IT)
Default                                  : No
Forced                                   : No

Audio #2
ID                                       : 3
Format                                   : AAC LC
Format/Info                              : Advanced Audio Codec Low Complexity
Codec ID                                 : A_AAC-2
Duration                                 : 2 h 1 min
Bit rate                                 : 128 kb/s
Channel(s)                               : 2 channels
Channel layout                           : L R
Sampling rate                            : 44.1 kHz
Frame rate                               : 43.066 FPS (1024 SPF)
Compression mode                         : Lossy
Stream size                              : 111 MiB (1%)
Title                                    : Spanish (Latin America)
Language                                 : Spanish (Latin America)
Default                                  : No
Forced                                   : No

Audio #3
ID                                       : 4
Format                                   : AAC LC
Format/Info                              : Advanced Audio Codec Low Complexity
Codec ID                                 : A_AAC-2
Duration                                 : 2 h 1 min
Bit rate                                 : 128 kb/s
Channel(s)                               : 2 channels
Channel layout                           : L R
Sampling rate                            : 44.1 kHz
Frame rate                               : 43.066 FPS (1024 SPF)
Compression mode                         : Lossy
Stream size                              : 111 MiB (1%)
Title                                    : French (France)
Language                                 : French (FR)
Default                                  : No
Forced                                   : No

Audio #4
ID                                       : 5
Format                                   : AAC LC
Format/Info                              : Advanced Audio Codec Low Complexity
Codec ID                                 : A_AAC-2
Duration                                 : 2 h 1 min
Bit rate                                 : 128 kb/s
Channel(s)                               : 2 channels
Channel layout                           : L R
Sampling rate                            : 44.1 kHz
Frame rate                               : 43.066 FPS (1024 SPF)
Compression mode                         : Lossy
Stream size                              : 111 MiB (1%)
Title                                    : Portuguese (Brazil)
Language                                 : Portuguese (BR)
Default                                  : No
Forced                                   : No

Audio #5
ID                                       : 6
Format                                   : AAC LC
Format/Info                              : Advanced Audio Codec Low Complexity
Codec ID                                 : A_AAC-2
Duration                                 : 2 h 1 min
Bit rate                                 : 128 kb/s
Channel(s)                               : 2 channels
Channel layout                           : L R
Sampling rate                            : 44.1 kHz
Frame rate                               : 43.066 FPS (1024 SPF)
Compression mode                         : Lossy
Stream size                              : 111 MiB (1%)
Title                                    : English (United States)
Language                                 : English (US)
Default                                  : No
Forced                                   : No

Audio #6
ID                                       : 7
Format                                   : AAC LC
Format/Info                              : Advanced Audio Codec Low Complexity
Codec ID                                 : A_AAC-2
Duration                                 : 2 h 1 min
Bit rate                                 : 128 kb/s
Channel(s)                               : 2 channels
Channel layout                           : L R
Sampling rate                            : 44.1 kHz
Frame rate                               : 43.066 FPS (1024 SPF)
Compression mode                         : Lossy
Stream size                              : 111 MiB (1%)
Title                                    : Japanese (Japan)
Language                                 : Japanese (JP)
Default                                  : Yes
Forced                                   : No

Audio #7
ID                                       : 8
Format                                   : AAC LC
Format/Info                              : Advanced Audio Codec Low Complexity
Codec ID                                 : A_AAC-2
Duration                                 : 2 h 1 min
Bit rate                                 : 128 kb/s
Channel(s)                               : 2 channels
Channel layout                           : L R
Sampling rate                            : 44.1 kHz
Frame rate                               : 43.066 FPS (1024 SPF)
Compression mode                         : Lossy
Stream size                              : 111 MiB (1%)
Title                                    : Russian (Russia)
Language                                 : Russian (RU)
Default                                  : No
Forced                                   : No

Audio #8
ID                                       : 9
Format                                   : AAC LC
Format/Info                              : Advanced Audio Codec Low Complexity
Codec ID                                 : A_AAC-2
Duration                                 : 2 h 1 min
Bit rate                                 : 128 kb/s
Channel(s)                               : 2 channels
Channel layout                           : L R
Sampling rate                            : 44.1 kHz
Frame rate                               : 43.066 FPS (1024 SPF)
Compression mode                         : Lossy
Stream size                              : 111 MiB (1%)
Title                                    : German (Germany)
Language                                 : German (DE)
Default                                  : No
Forced                                   : No

Text #1
ID                                       : 10
Format                                   : UTF-8
Codec ID                                 : S_TEXT/UTF8
Codec ID/Info                            : UTF-8 Plain Text
Duration                                 : 2 h 0 min
Bit rate                                 : 94 b/s
Frame rate                               : 0.287 FPS
Count of elements                        : 2066
Stream size                              : 82.7 KiB (0%)
Title                                    : English [SDH]
Language                                 : English
Default                                  : No
Forced                                   : No

Text #2
ID                                       : 11
Format                                   : ASS
Codec ID                                 : S_TEXT/ASS
Codec ID/Info                            : Advanced Sub Station Alpha
Duration                                 : 2 h 0 min
Bit rate                                 : 122 b/s
Frame rate                               : 0.287 FPS
Count of elements                        : 2068
Compression mode                         : Lossless
Stream size                              : 108 KiB (0%)
Title                                    : English (United States) [Full]
Language                                 : English (US)
Default                                  : No
Forced                                   : No

Text #3
ID                                       : 12
Format                                   : ASS
Codec ID                                 : S_TEXT/ASS
Codec ID/Info                            : Advanced Sub Station Alpha
Duration                                 : 2 h 0 min
Bit rate                                 : 111 b/s
Frame rate                               : 0.236 FPS
Count of elements                        : 1702
Compression mode                         : Lossless
Stream size                              : 98.5 KiB (0%)
Title                                    : French (France) [Full]
Language                                 : French (FR)
Default                                  : Yes
Forced                                   : No

Text #4
ID                                       : 13
Format                                   : ASS
Codec ID                                 : S_TEXT/ASS
Codec ID/Info                            : Advanced Sub Station Alpha
Duration                                 : 1 h 59 min
Bit rate                                 : 113 b/s
Frame rate                               : 0.242 FPS
Count of elements                        : 1739
Compression mode                         : Lossless
Stream size                              : 99.4 KiB (0%)
Title                                    : German (Germany) [Full]
Language                                 : German (DE)
Default                                  : No
Forced                                   : No

Text #5
ID                                       : 14
Format                                   : ASS
Codec ID                                 : S_TEXT/ASS
Codec ID/Info                            : Advanced Sub Station Alpha
Duration                                 : 2 h 0 min
Bit rate                                 : 106 b/s
Frame rate                               : 0.242 FPS
Count of elements                        : 1744
Compression mode                         : Lossless
Stream size                              : 93.4 KiB (0%)
Title                                    : Italian (Italy) [Full]
Language                                 : Italian (IT)
Default                                  : No
Forced                                   : No

Text #6
ID                                       : 15
Format                                   : ASS
Codec ID                                 : S_TEXT/ASS
Codec ID/Info                            : Advanced Sub Station Alpha
Duration                                 : 2 h 0 min
Bit rate                                 : 101 b/s
Frame rate                               : 0.226 FPS
Count of elements                        : 1631
Compression mode                         : Lossless
Stream size                              : 88.9 KiB (0%)
Title                                    : Polish (Poland) [Full]
Language                                 : Polish (PL)
Default                                  : No
Forced                                   : No

Text #7
ID                                       : 16
Format                                   : ASS
Codec ID                                 : S_TEXT/ASS
Codec ID/Info                            : Advanced Sub Station Alpha
Duration                                 : 2 h 0 min
Bit rate                                 : 106 b/s
Frame rate                               : 0.231 FPS
Count of elements                        : 1661
Compression mode                         : Lossless
Stream size                              : 93.9 KiB (0%)
Title                                    : Portuguese (Brazil) [Full]
Language                                 : Portuguese (BR)
Default                                  : No
Forced                                   : No

Text #8
ID                                       : 17
Format                                   : ASS
Codec ID                                 : S_TEXT/ASS
Codec ID/Info                            : Advanced Sub Station Alpha
Duration                                 : 2 h 0 min
Bit rate                                 : 107 b/s
Frame rate                               : 0.236 FPS
Count of elements                        : 1702
Compression mode                         : Lossless
Stream size                              : 94.2 KiB (0%)
Title                                    : Portuguese (Portugal) [Full]
Language                                 : Portuguese (PT)
Default                                  : No
Forced                                   : No

Text #9
ID                                       : 18
Format                                   : ASS
Codec ID                                 : S_TEXT/ASS
Codec ID/Info                            : Advanced Sub Station Alpha
Duration                                 : 2 h 0 min
Bit rate                                 : 163 b/s
Frame rate                               : 0.237 FPS
Count of elements                        : 1706
Compression mode                         : Lossless
Stream size                              : 144 KiB (0%)
Title                                    : Russian (Russia) [Full]
Language                                 : Russian (RU)
Default                                  : No
Forced                                   : No

Text #10
ID                                       : 19
Format                                   : ASS
Codec ID                                 : S_TEXT/ASS
Codec ID/Info                            : Advanced Sub Station Alpha
Duration                                 : 2 h 0 min
Bit rate                                 : 106 b/s
Frame rate                               : 0.236 FPS
Count of elements                        : 1698
Compression mode                         : Lossless
Stream size                              : 94.0 KiB (0%)
Title                                    : Spanish (Latin America) [Full]
Language                                 : Spanish (Latin America)
Default                                  : No
Forced                                   : No

Text #11
ID                                       : 20
Format                                   : ASS
Codec ID                                 : S_TEXT/ASS
Codec ID/Info                            : Advanced Sub Station Alpha
Duration                                 : 2 h 0 min
Bit rate                                 : 107 b/s
Frame rate                               : 0.236 FPS
Count of elements                        : 1699
Compression mode                         : Lossless
Stream size                              : 94.4 KiB (0%)
Title                                    : Spanish (Spain) [Full]
Language                                 : Spanish (ES)
Default                                  : No
Forced                                   : No
beta
Anime DDL+NZB mirror
Current Time: 24/07/2024 18:08



About/FAQs

Discord