File Size6.270 GB (6,731,828,660 bytes)
DownloadClickNUpload: Part1, Part2, Part3, Part4
DailyUploads: Part1, Part2, Part3, Part4, Part5, Part6, Part7
DownloadGG: Part1, Part2, Part3, Part4, Part5, Part6, Part7
GoFile: Part1, Part2, Part3, Part4
KrakenFiles: Part1, Part2, Part3, Part4, Part5, Part6, Part7
MdiaLoad: Part1, Part2, Part3, Part4
MultiUp: Part1, Part2, Part3, Part4, Part5, Part6, Part7, Part8, Part9, Part10, Part11, Part12, Part13
Uppit: Part1, Part2, Part3, Part4, Part5, Part6, Part7
HashesCRC32: E54E5CAD, MD5: 3523B7F1DA1003EDB3758E472B183EE0, SHA1: CBC8AFF7369340ECB3C02205B24AEC512D1370AB, SHA256: F8042D690B90F10EDFC313AD6561CF669E87C8C23E671716A952000A29E15514, ED2K: 6982C8C8D943BCBA93FBDC422D07CF3D
Screenshots
screenshotscreenshotscreenshotscreenshotscreenshot
SubtitlesAll Attachments | Forced [eng, ASS], eng [ASS], eng [SRT], ger [ASS], spa [ASS], spa [ASS], fre [ASS], hun [SRT], ita [ASS], pol [ASS], por [ASS], por [ASS], rus [ASS]
Additional Info
General
Unique ID                                : 238364991492185683065455280706906279999 (0xB3536D6F626762306C7B5B977680D03F)
Complete name                            : Suzume.2022.1080p.BluRay.DDP5.1.x264-VARYG.mkv
Format                                   : Matroska
Format version                           : Version 4
File size                                : 6.27 GiB
Duration                                 : 2 h 1 min
Overall bit rate                         : 7 392 kb/s
Frame rate                               : 23.976 FPS
Encoded date                             : 2023-11-17 22:14:34 UTC
Writing application                      : mkvmerge v79.0 ('Funeral Pyres') 64-bit
Writing library                          : libebml v1.4.4 + libmatroska v1.7.1
Attachments                              : Arial.ttf

Video
ID                                       : 1
Format                                   : AVC
Format/Info                              : Advanced Video Codec
Format profile                           : High@L4.1
Format settings                          : CABAC / 5 Ref Frames
Format settings, CABAC                   : Yes
Format settings, Reference frames        : 5 frames
Codec ID                                 : V_MPEG4/ISO/AVC
Duration                                 : 2 h 1 min
Bit rate                                 : 6 186 kb/s
Width                                    : 1 920 pixels
Height                                   : 804 pixels
Display aspect ratio                     : 2.40:1
Frame rate mode                          : Constant
Frame rate                               : 23.976 (24000/1001) FPS
Color space                              : YUV
Chroma subsampling                       : 4:2:0
Bit depth                                : 8 bits
Scan type                                : Progressive
Bits/(Pixel*Frame)                       : 0.167
Stream size                              : 5.25 GiB (84%)
Writing library                          : x264 core 164 r3099+55M 141af3f t_mod_New [(8 & 10)-bit@all X86_64]
Encoding settings                        : cabac=1 / ref=5 / deblock=1:0:0 / analyse=0x3:0x133 / me=tesa / subme=11 / psy=1 / fade_compensate=0.00 / psy_rd=0.82:0.00 / mixed_ref=1 / me_range=32 / chroma_me=1 / trellis=2 / 8x8dct=1 / cqm=0 / deadzone=21,11 / fast_pskip=0 / chroma_qp_offset=-2 / threads=6 / lookahead_threads=1 / sliced_threads=0 / nr=0 / decimate=0 / interlaced=0 / bluray_compat=0 / constrained_intra=0 / fgo=0 / bframes=16 / b_pyramid=2 / b_adapt=2 / b_bias=0 / direct=3 / weightb=1 / open_gop=0 / weightp=2 / keyint=250 / keyint_min=24 / scenecut=40 / intra_refresh=0 / rc_lookahead=250 / rc=crf / mbtree=0 / crf=16.0000 / qcomp=0.68 / qpmin=0:0:0 / qpmax=69:69:69 / qpstep=4 / vbv_maxrate=62500 / vbv_bufsize=78125 / crf_max=0.0 / nal_hrd=none / filler=0 / ip_ratio=1.30 / pb_ratio=1.20 / aq=3:0.80 / aq-sensitivity=10.00 / aq-factor=1.00:1.00:1.00 / aq2=0 / aq3=0
Language                                 : Japanese
Default                                  : Yes
Forced                                   : No
Color range                              : Limited
Color primaries                          : BT.709
Transfer characteristics                 : BT.709
Matrix coefficients                      : BT.709

Audio #1
ID                                       : 2
Format                                   : E-AC-3
Format/Info                              : Enhanced AC-3
Commercial name                          : Dolby Digital Plus
Codec ID                                 : A_EAC3
Duration                                 : 2 h 1 min
Bit rate mode                            : Constant
Bit rate                                 : 1 024 kb/s
Channel(s)                               : 6 channels
Channel layout                           : L R C LFE Ls Rs
Sampling rate                            : 48.0 kHz
Frame rate                               : 31.250 FPS (1536 SPF)
Compression mode                         : Lossy
Stream size                              : 889 MiB (14%)
Language                                 : Japanese
Service kind                             : Complete Main
Default                                  : Yes
Forced                                   : No

Audio #2
ID                                       : 3
Format                                   : AAC LC
Format/Info                              : Advanced Audio Codec Low Complexity
Codec ID                                 : A_AAC-2
Duration                                 : 2 h 1 min
Bit rate                                 : 177 kb/s
Channel(s)                               : 2 channels
Channel layout                           : L R
Sampling rate                            : 44.1 kHz
Frame rate                               : 43.066 FPS (1024 SPF)
Compression mode                         : Lossy
Delay relative to video                  : 6 ms
Stream size                              : 154 MiB (2%)
Language                                 : English
Default                                  : No
Forced                                   : No

Text #1
ID                                       : 4
Format                                   : ASS
Codec ID                                 : S_TEXT/ASS
Codec ID/Info                            : Advanced Sub Station Alpha
Duration                                 : 1 h 51 min
Bit rate                                 : 3 b/s
Frame rate                               : 0.009 FPS
Count of elements                        : 58
Compression mode                         : Lossless
Stream size                              : 2.86 KiB (0%)
Title                                    : Forced
Language                                 : English
Default                                  : No
Forced                                   : Yes

Text #2
ID                                       : 5
Format                                   : ASS
Codec ID                                 : S_TEXT/ASS
Codec ID/Info                            : Advanced Sub Station Alpha
Duration                                 : 2 h 0 min
Bit rate                                 : 122 b/s
Frame rate                               : 0.287 FPS
Count of elements                        : 2068
Compression mode                         : Lossless
Stream size                              : 108 KiB (0%)
Language                                 : English
Default                                  : Yes
Forced                                   : No

Text #3
ID                                       : 6
Format                                   : UTF-8
Codec ID                                 : S_TEXT/UTF8
Codec ID/Info                            : UTF-8 Plain Text
Duration                                 : 2 h 0 min
Bit rate                                 : 50 b/s
Frame rate                               : 0.282 FPS
Count of elements                        : 2032
Stream size                              : 44.4 KiB (0%)
Language                                 : English
Default                                  : No
Forced                                   : No

Text #4
ID                                       : 7
Format                                   : ASS
Codec ID                                 : S_TEXT/ASS
Codec ID/Info                            : Advanced Sub Station Alpha
Duration                                 : 2 h 0 min
Bit rate                                 : 113 b/s
Frame rate                               : 0.241 FPS
Count of elements                        : 1739
Compression mode                         : Lossless
Stream size                              : 99.4 KiB (0%)
Language                                 : German
Default                                  : No
Forced                                   : No

Text #5
ID                                       : 8
Format                                   : ASS
Codec ID                                 : S_TEXT/ASS
Codec ID/Info                            : Advanced Sub Station Alpha
Duration                                 : 2 h 0 min
Bit rate                                 : 106 b/s
Frame rate                               : 0.236 FPS
Count of elements                        : 1698
Compression mode                         : Lossless
Stream size                              : 94.0 KiB (0%)
Language                                 : Spanish (Latin America)
Default                                  : No
Forced                                   : No

Text #6
ID                                       : 9
Format                                   : ASS
Codec ID                                 : S_TEXT/ASS
Codec ID/Info                            : Advanced Sub Station Alpha
Duration                                 : 2 h 0 min
Bit rate                                 : 107 b/s
Frame rate                               : 0.236 FPS
Count of elements                        : 1699
Compression mode                         : Lossless
Stream size                              : 94.4 KiB (0%)
Language                                 : Spanish
Default                                  : No
Forced                                   : No

Text #7
ID                                       : 10
Format                                   : ASS
Codec ID                                 : S_TEXT/ASS
Codec ID/Info                            : Advanced Sub Station Alpha
Duration                                 : 2 h 0 min
Bit rate                                 : 111 b/s
Frame rate                               : 0.236 FPS
Count of elements                        : 1702
Compression mode                         : Lossless
Stream size                              : 98.5 KiB (0%)
Language                                 : French
Default                                  : No
Forced                                   : No

Text #8
ID                                       : 11
Format                                   : UTF-8
Codec ID                                 : S_TEXT/UTF8
Codec ID/Info                            : UTF-8 Plain Text
Duration                                 : 2 h 0 min
Bit rate                                 : 43 b/s
Frame rate                               : 0.169 FPS
Count of elements                        : 1215
Stream size                              : 38.3 KiB (0%)
Language                                 : Hungarian
Default                                  : No
Forced                                   : No

Text #9
ID                                       : 12
Format                                   : ASS
Codec ID                                 : S_TEXT/ASS
Codec ID/Info                            : Advanced Sub Station Alpha
Duration                                 : 2 h 0 min
Bit rate                                 : 106 b/s
Frame rate                               : 0.242 FPS
Count of elements                        : 1744
Compression mode                         : Lossless
Stream size                              : 93.4 KiB (0%)
Language                                 : Italian
Default                                  : No
Forced                                   : No

Text #10
ID                                       : 13
Format                                   : ASS
Codec ID                                 : S_TEXT/ASS
Codec ID/Info                            : Advanced Sub Station Alpha
Duration                                 : 2 h 0 min
Bit rate                                 : 101 b/s
Frame rate                               : 0.226 FPS
Count of elements                        : 1631
Compression mode                         : Lossless
Stream size                              : 88.9 KiB (0%)
Language                                 : Polish
Default                                  : No
Forced                                   : No

Text #11
ID                                       : 14
Format                                   : ASS
Codec ID                                 : S_TEXT/ASS
Codec ID/Info                            : Advanced Sub Station Alpha
Duration                                 : 2 h 0 min
Bit rate                                 : 106 b/s
Frame rate                               : 0.230 FPS
Count of elements                        : 1661
Compression mode                         : Lossless
Stream size                              : 93.9 KiB (0%)
Language                                 : Portuguese (BR)
Default                                  : No
Forced                                   : No

Text #12
ID                                       : 15
Format                                   : ASS
Codec ID                                 : S_TEXT/ASS
Codec ID/Info                            : Advanced Sub Station Alpha
Duration                                 : 2 h 0 min
Bit rate                                 : 107 b/s
Frame rate                               : 0.236 FPS
Count of elements                        : 1702
Compression mode                         : Lossless
Stream size                              : 94.2 KiB (0%)
Language                                 : Portuguese (PT)
Default                                  : No
Forced                                   : No

Text #13
ID                                       : 16
Format                                   : ASS
Codec ID                                 : S_TEXT/ASS
Codec ID/Info                            : Advanced Sub Station Alpha
Duration                                 : 2 h 0 min
Bit rate                                 : 163 b/s
Frame rate                               : 0.237 FPS
Count of elements                        : 1706
Compression mode                         : Lossless
Stream size                              : 144 KiB (0%)
Language                                 : Russian
Default                                  : No
Forced                                   : No

Menu
00:00:00.000                             : en:Always Dream
00:02:08.754                             : en:Day 1 Encounter
00:04:10.667                             : en:Door of Ruins
00:07:48.176                             : en:Locking the Door for the First Time
00:13:03.866                             : en:After the Earthquake
00:16:21.189                             : en:Talking Cat, Running Chair
00:19:44.683                             : en:The People on the Boat
00:23:24.778                             : en:Day 2 Cat Search
00:25:37.536                             : en:The Back Door of a Closed School
00:31:17.667                             : en:Minshuku Night
00:35:51.149                             : en:Day 3 Crossing Strait
00:41:12.303                             : en:Helping
00:45:47.620                             : en:Amusement Park
00:52:07.624                             : en:Sota's Dream
00:55:55.102                             : en:Day 4 to Tokyo
00:58:31.717                             : en:Two Keystones
01:02:25.450                             : en:Harbinger
01:06:13.136                             : en:Seal
01:12:19.794                             : en:Day 5 Underground Castle
01:15:20.057                             : en:A World Without Sota
01:19:44.613                             : en:Looking for the Door
01:25:13.942                             : en:Fukushima
01:29:00.710                             : en:Sadaijin
01:33:20.136                             : en:Homecoming
01:37:50.531                             : en:The Last Back Door
01:40:42.286                             : en:Tokoyo
01:45:38.999                             : en:Fold
01:49:29.646                             : en:Sparrow's Tomorrow
01:53:36.018                             : en:Day 6 Welcome Back
01:56:39.576                             : en:End Credits
beta
Anime DDL+NZB mirror
Current Time: 13/07/2024 19:24



About/FAQs

Discord