File Size551.7 MB (578,466,700 bytes)
DownloadClickNUpload | DailyUploads | DownloadGG | GoFile | KrakenFiles | MdiaLoad | Uppit
MultiUp: Part1
  • BdUpload
  • DownAce
  • Fichier
  • FileCloud
  • Filerio
  • FilesCdn
  • IndiShare
  • Kbagi
  • Turbobit
  • UpToBox
  • Uppit
, Part2
  • BdUpload
  • DownAce
  • Fichier
  • FileCloud
  • Filerio
  • FilesCdn
  • IndiShare
  • Kbagi
  • Turbobit
  • UpToBox
  • Uppit
HashesCRC32: A43711AA, MD5: F04D90396147E166C7BBA039CCA78BFE, SHA1: 35B868AD2B63FD14466AF411081DCFAFA2A73901, SHA256: 1D33EB689D3B3A4E25D09F1DC68D6699C6712432739E7F15081421B6D0516795, ED2K: D91DC0B873BBFB559A06A0A855EAEFA2
Screenshots
screenshotscreenshotscreenshotscreenshotscreenshot
SubtitlesAll Attachments | SubsPlus+ [eng, ASS]
Additional Info
General
Unique ID                                : 270021483444722021379102934295672259519 (0xCB243EFDBFCA620A41BEEAE196EC03BF)
Complete name                            : [SubsPlus+] Gushing Over Magical Girls - S01E11 (WEB 1080p ADN) [A43711AA].mkv
Format                                   : Matroska
Format version                           : Version 4
File size                                : 552 MiB
Duration                                 : 23 min 44 s
Overall bit rate                         : 3 248 kb/s
Frame rate                               : 23.976 FPS
Movie name                               : [SubsPlus+] Gushing Over Magical Girls - S01E11
Encoded date                             : 2024-03-13 23:13:24 UTC
Writing application                      : mkvmerge v79.0 ('Funeral Pyres') 64-bit
Writing library                          : libebml v1.4.4 + libmatroska v1.7.1
Attachments                              : SPOverrideF-Regular.otf / SPOverrideF-Italics.otf / Sub-Alegreya-Bold.otf / Swis721_BT_Bold.ttf / VAGRoundedBT.ttf / FirstGrader.ttf

Video
ID                                       : 1
Format                                   : AVC
Format/Info                              : Advanced Video Codec
Format profile                           : High@L4.1
Format settings                          : CABAC / 4 Ref Frames
Format settings, CABAC                   : Yes
Format settings, Reference frames        : 4 frames
Codec ID                                 : V_MPEG4/ISO/AVC
Duration                                 : 23 min 44 s
Bit rate                                 : 3 100 kb/s
Width                                    : 1 920 pixels
Height                                   : 1 080 pixels
Display aspect ratio                     : 16:9
Frame rate mode                          : Constant
Frame rate                               : 23.976 (24000/1001) FPS
Color space                              : YUV
Chroma subsampling                       : 4:2:0
Bit depth                                : 8 bits
Scan type                                : Progressive
Bits/(Pixel*Frame)                       : 0.062
Stream size                              : 524 MiB (95%)
Writing library                          : x264 core 160 r3011 cde9a93
Encoding settings                        : cabac=1 / ref=4 / deblock=1:1:1 / analyse=0x3:0x113 / me=hex / subme=7 / psy=1 / psy_rd=0.40:0.00 / mixed_ref=1 / me_range=16 / chroma_me=1 / trellis=1 / 8x8dct=1 / cqm=0 / deadzone=21,11 / fast_pskip=1 / chroma_qp_offset=-2 / threads=24 / lookahead_threads=6 / sliced_threads=0 / nr=0 / decimate=1 / interlaced=0 / bluray_compat=0 / constrained_intra=0 / bframes=5 / b_pyramid=2 / b_adapt=2 / b_bias=0 / direct=1 / weightb=1 / open_gop=0 / weightp=2 / keyint=96 / keyint_min=9 / scenecut=0 / intra_refresh=0 / rc_lookahead=40 / rc=2pass / mbtree=1 / bitrate=3100 / ratetol=1.0 / qcomp=0.60 / qpmin=0 / qpmax=69 / qpstep=4 / cplxblur=20.0 / qblur=0.5 / vbv_maxrate=6200 / vbv_bufsize=3100 / nal_hrd=none / filler=0 / ip_ratio=1.40 / aq=1:0.60
Default                                  : Yes
Forced                                   : No

Audio
ID                                       : 2
Format                                   : AAC LC
Format/Info                              : Advanced Audio Codec Low Complexity
Codec ID                                 : A_AAC-2
Duration                                 : 23 min 44 s
Bit rate                                 : 160 kb/s
Channel(s)                               : 2 channels
Channel layout                           : L R
Sampling rate                            : 48.0 kHz
Frame rate                               : 46.875 FPS (1024 SPF)
Compression mode                         : Lossy
Stream size                              : 27.1 MiB (5%)
Language                                 : Japanese
Default                                  : Yes
Forced                                   : No

Text
ID                                       : 3
Format                                   : ASS
Codec ID                                 : S_TEXT/ASS
Codec ID/Info                            : Advanced Sub Station Alpha
Duration                                 : 23 min 25 s
Bit rate                                 : 93 b/s
Frame rate                               : 0.204 FPS
Count of elements                        : 287
Compression mode                         : Lossless
Stream size                              : 16.0 KiB (0%)
Title                                    : SubsPlus+
Language                                 : English
Default                                  : Yes
Forced                                   : No

Menu
00:00:00.000                             : en:Prologue
00:00:42.021                             : en:Opening
00:02:11.986                             : en:Episode
00:22:09.934                             : en:Ending
00:23:39.941                             : en:Epilogue
beta
Anime DDL+NZB mirror
Current Time: 14/06/2024 18:46



About/FAQs

Discord