File Size95.78 MB (100,434,597 bytes)
DownloadAnonFiles | ClickNUpload | DownloadGG | KrakenFiles | MultiUp
  • BdUpload
  • DownAce
  • Fichier
  • FileCloud
  • Filerio
  • FilesCdn
  • IndiShare
  • Kbagi
  • Turbobit
  • UpToBox
  • Uppit
| ZippyShare
HashesCRC32: 3B9A08B0, MD5: 7EF46609CA1B8384550C14989FC86069, SHA1: C1C951F4B8521E1879004CAC09DF134E88CB7677, SHA256: D67BE249F821D63E22412583377C1D987CA986708C92CE346CF1A0CDD92D1C68, ED2K: 98ED56927F69C13B21EF9EB0FBB47397
Screenshots
screenshotscreenshotscreenshotscreenshotscreenshot
SubtitlesAll Attachments | Full Subs [eng, ASS]
Additional Info
General
Unique ID                                : 171436775430381514782742300287196785130 (0x80F9859DAABAD37AF9771F1604C0E9EA)
Complete name                            : [Some-Stuffs] Twin Indigo of Melting Snow 03 (1080p) [3B9A08B0].mkv
Format                                   : Matroska
Format version                           : Version 4
File size                                : 95.8 MiB
Duration                                 : 12 min 34 s
Overall bit rate                         : 1 066 kb/s
Movie name                               : Pokémon Legends Arceus - Twin Indigo of Melting Snow 03
Encoded date                             : UTC 2022-06-22 21:15:35
Writing application                      : mkvmerge v68.0.0 ('The Curtain') 64-bit
Writing library                          : libebml v1.4.2 + libmatroska v1.6.4
Attachments                              : candarab.ttf / candaraz.ttf / dftlei5.ttc / Fertigo_PRO.otf / FOT-RodinRose Pro DB.otf

Video
ID                                       : 1
Format                                   : AVC
Format/Info                              : Advanced Video Codec
Format profile                           : High@L4
Format settings                          : CABAC / 3 Ref Frames
Format settings, CABAC                   : Yes
Format settings, Reference frames        : 3 frames
Codec ID                                 : V_MPEG4/ISO/AVC
Duration                                 : 12 min 34 s
Bit rate                                 : 857 kb/s
Width                                    : 1 920 pixels
Height                                   : 1 080 pixels
Display aspect ratio                     : 16:9
Frame rate mode                          : Constant
Frame rate                               : 24.000 FPS
Color space                              : YUV
Chroma subsampling                       : 4:2:0
Bit depth                                : 8 bits
Scan type                                : Progressive
Bits/(Pixel*Frame)                       : 0.017
Stream size                              : 77.0 MiB (80%)
Writing library                          : x264 core 155 r2901 7d0ff22
Default                                  : Yes
Forced                                   : No
Color range                              : Limited
Color primaries                          : BT.709
Transfer characteristics                 : BT.709
Matrix coefficients                      : BT.709

Audio
ID                                       : 2
Format                                   : Opus
Codec ID                                 : A_OPUS
Duration                                 : 12 min 34 s
Bit rate                                 : 125 kb/s
Channel(s)                               : 2 channels
Channel layout                           : L R
Sampling rate                            : 48.0 kHz
Frame rate                               : 50.000 FPS (960 SPF)
Bit depth                                : 32 bits
Compression mode                         : Lossy
Stream size                              : 11.2 MiB (12%)
Language                                 : Japanese
Default                                  : Yes
Forced                                   : No

Text
ID                                       : 3
Format                                   : ASS
Codec ID                                 : S_TEXT/ASS
Codec ID/Info                            : Advanced Sub Station Alpha
Duration                                 : 11 min 21 s
Bit rate                                 : 57 b/s
Count of elements                        : 86
Compression mode                         : Lossless
Stream size                              : 4.80 KiB (0%)
Title                                    : Full Subs
Language                                 : English
Default                                  : Yes
Forced                                   : No
beta
Anime DDL+NZB mirror
Current Time: 13/07/2024 13:06



About/FAQs

Discord