File Size337.6 MB (353,982,471 bytes)
DownloadAnonFiles | ClickNUpload | DownloadGG | KrakenFiles | MultiUp
  • BdUpload
  • DownAce
  • Fichier
  • FileCloud
  • Filerio
  • FilesCdn
  • IndiShare
  • Kbagi
  • Turbobit
  • UpToBox
  • Uppit
| ZippyShare
HashesCRC32: 22CA8FA3, MD5: BE1C0AF4B0B0096E94753DC593C64092, SHA1: A42599E7CA06A93768F65B3710FFE5F85D16D1E3, SHA256: 47D47B03904CE2F6B33E196747468B5B09C5ED2E931020690AB17623984622E7, ED2K: BB73D846A1B94FF8F8C955DACCE22098
Screenshots
screenshotscreenshotscreenshotscreenshotscreenshot
SubtitlesAll Attachments | eng [ASS]
Additional Info
General
Unique ID                                : 315030786576880622846473788285299474056 (0xED00B8F78B5E3DF856EC0F5D713C3E88)
Complete name                            : [Some-Stuffs] Twin Indigo of Melting Snow 01 (WEB 1080p Opus) [22CA8FA3].mkv
Format                                   : Matroska
Format version                           : Version 4
File size                                : 338 MiB
Duration                                 : 6 min 31 s
Overall bit rate                         : 7 231 kb/s
Movie name                               : Pokémon Legends Arceus - Twin Indigo of Melting Snow 01
Encoded date                             : UTC 2022-07-17 17:32:28
Writing application                      : mkvmerge v69.0.0 ('Day And Age') 64-bit
Writing library                          : libebml v1.4.2 + libmatroska v1.6.4
Attachments                              : candarab.ttf / candaraz.ttf / dftlei5.ttc / Fertigo_PRO.otf / IwaOMinPro-Hv-Fate.ttf

Video
ID                                       : 1
Format                                   : AVC
Format/Info                              : Advanced Video Codec
Format profile                           : High 10@L5.1
Format settings                          : CABAC / 16 Ref Frames
Format settings, CABAC                   : Yes
Format settings, Reference frames        : 16 frames
Codec ID                                 : V_MPEG4/ISO/AVC
Duration                                 : 6 min 31 s
Bit rate                                 : 6 991 kb/s
Width                                    : 1 920 pixels
Height                                   : 1 080 pixels
Display aspect ratio                     : 16:9
Frame rate mode                          : Constant
Frame rate                               : 24.000 FPS
Color space                              : YUV
Chroma subsampling                       : 4:2:0
Bit depth                                : 10 bits
Scan type                                : Progressive
Bits/(Pixel*Frame)                       : 0.140
Stream size                              : 326 MiB (97%)
Writing library                          : x264 core 163 r3059+18 1500ea2 (DJATOM's mod)
Encoding settings                        : cabac=1 / ref=16 / deblock=1:-2:-2 / analyse=0x3:0x113 / me=umh / subme=10 / psy=1 / fade_compensate=0.00 / psy_rd=0.95:0.00 / mixed_ref=1 / me_range=32 / chroma_me=1 / trellis=2 / 8x8dct=1 / cqm=0 / deadzone=21,11 / fast_pskip=0 / chroma_qp_offset=-2 / threads=24 / lookahead_threads=6 / sliced_threads=0 / nr=0 / decimate=0 / interlaced=0 / bluray_compat=0 / constrained_intra=0 / bframes=16 / b_pyramid=2 / b_adapt=2 / b_bias=0 / direct=3 / weightb=1 / open_gop=0 / weightp=2 / keyint=240 / keyint_min=24 / scenecut=40 / intra_refresh=0 / rc=crf / mbtree=0 / crf=14.0000 / qcomp=0.75 / qpmin=0 / qpmax=81 / qpstep=4 / ip_ratio=1.40 / pb_ratio=1.30 / aq=3:0.80
Default                                  : Yes
Forced                                   : No
Color range                              : Limited
Matrix coefficients                      : BT.709

Audio
ID                                       : 2
Format                                   : Opus
Codec ID                                 : A_OPUS
Duration                                 : 6 min 31 s
Bit rate                                 : 122 kb/s
Channel(s)                               : 2 channels
Channel layout                           : L R
Sampling rate                            : 48.0 kHz
Frame rate                               : 50.001 FPS (960 SPF)
Bit depth                                : 16 bits
Compression mode                         : Lossy
Stream size                              : 5.69 MiB (2%)
Language                                 : Japanese
Default                                  : Yes
Forced                                   : No

Text
ID                                       : 3
Format                                   : ASS
Codec ID                                 : S_TEXT/ASS
Codec ID/Info                            : Advanced Sub Station Alpha
Duration                                 : 5 min 28 s
Bit rate                                 : 70 b/s
Count of elements                        : 41
Compression mode                         : Lossless
Stream size                              : 2.83 KiB (0%)
Language                                 : English
Default                                  : Yes
Forced                                   : No

Menu
00:00:00.000                             : en:An Azure Spring's Walk
00:05:45.770                             : en:Credits
00:06:08.110                             : en:Game Ad

Other Files in this Torrent
[Some-Stuffs] Twin Indigo of Melting Snow 01 (WEB 1080p Opus) [22CA8FA3].mkv
beta
Anime DDL+NZB mirror
Current Time: 20/07/2024 22:11



About/FAQs

Discord