[Some-Stuffs] Pokémon Concierge 04 (1080p) [1DB56697].mkv


File Size692.9 MB (726,538,009 bytes)
DownloadClickNUpload | DailyUploads | DownloadGG | GoFile | KrakenFiles | MdiaLoad | Uppit
MultiUp: Part1
  • BdUpload
  • DownAce
  • Fichier
  • FileCloud
  • Filerio
  • FilesCdn
  • IndiShare
  • Kbagi
  • Turbobit
  • UpToBox
  • Uppit
, Part2
  • BdUpload
  • DownAce
  • Fichier
  • FileCloud
  • Filerio
  • FilesCdn
  • IndiShare
  • Kbagi
  • Turbobit
  • UpToBox
  • Uppit
HashesCRC32: 1DB56697, MD5: 57869F2D39046F627D14DCB42582BDD0, SHA1: 4910357E4BC1DBF5FD1D9314F18D5B6C2A43B3A1, SHA256: 0C9D82AA705FD374E5547262D99C3D67A830B094BE313610253DC2C05E7D685F, ED2K: 9BD6F837067738764A7A3FBE16ACDF22
Screenshots
screenshotscreenshotscreenshotscreenshotscreenshot
SubtitlesAll Attachments | eng [ASS], Honorifics [enm, ASS]
Additional Info
General
Unique ID                                : 199163559939080366437782377306090146024 (0x95D581A2E3AA2404E0696A8DD04888E8)
Complete name                            : [Some-Stuffs] Pokémon Concierge 04 (1080p) [1DB56697].mkv
Format                                   : Matroska
Format version                           : Version 4
File size                                : 693 MiB
Duration                                 : 17 min 4 s
Overall bit rate mode                    : Variable
Overall bit rate                         : 5 676 kb/s
Frame rate                               : 24.000 FPS
Encoded date                             : 2024-01-31 19:15:49 UTC
Writing application                      : mkvmerge v82.0 ('I'm The President') 64-bit
Writing library                          : libebml v1.4.5 + libmatroska v1.7.1
Attachments                              : Boogaloo-Regular.ttf / candarab.ttf / candaraz.ttf

Video
ID                                       : 1
Format                                   : AVC
Format/Info                              : Advanced Video Codec
Format profile                           : Main@L4
Format settings                          : CABAC / 3 Ref Frames
Format settings, CABAC                   : Yes
Format settings, Reference frames        : 3 frames
Codec ID                                 : V_MPEG4/ISO/AVC
Duration                                 : 17 min 4 s
Bit rate mode                            : Variable
Bit rate                                 : 5 030 kb/s
Maximum bit rate                         : 7 500 kb/s
Width                                    : 1 920 pixels
Height                                   : 1 080 pixels
Display aspect ratio                     : 16:9
Frame rate mode                          : Constant
Frame rate                               : 24.000 FPS
Color space                              : YUV
Chroma subsampling                       : 4:2:0
Bit depth                                : 8 bits
Scan type                                : Progressive
Bits/(Pixel*Frame)                       : 0.101
Stream size                              : 614 MiB (89%)
Default                                  : Yes
Forced                                   : No

Audio
ID                                       : 2
Format                                   : E-AC-3
Format/Info                              : Enhanced AC-3
Commercial name                          : Dolby Digital Plus
Codec ID                                 : A_EAC3
Duration                                 : 17 min 4 s
Bit rate mode                            : Constant
Bit rate                                 : 640 kb/s
Channel(s)                               : 6 channels
Channel layout                           : L R C LFE Ls Rs
Sampling rate                            : 48.0 kHz
Frame rate                               : 31.250 FPS (1536 SPF)
Compression mode                         : Lossy
Delay relative to video                  : 16 ms
Stream size                              : 78.1 MiB (11%)
Language                                 : Japanese
Service kind                             : Complete Main
Default                                  : Yes
Forced                                   : No

Text #1
ID                                       : 3
Format                                   : ASS
Codec ID                                 : S_TEXT/ASS
Codec ID/Info                            : Advanced Sub Station Alpha
Duration                                 : 13 min 45 s
Bit rate                                 : 114 b/s
Frame rate                               : 0.240 FPS
Count of elements                        : 198
Compression mode                         : Lossless
Stream size                              : 11.5 KiB (0%)
Language                                 : English
Default                                  : Yes
Forced                                   : No

Text #2
ID                                       : 4
Format                                   : ASS
Codec ID                                 : S_TEXT/ASS
Codec ID/Info                            : Advanced Sub Station Alpha
Duration                                 : 13 min 45 s
Bit rate                                 : 114 b/s
Frame rate                               : 0.240 FPS
Count of elements                        : 198
Compression mode                         : Lossless
Stream size                              : 11.5 KiB (0%)
Title                                    : Honorifics
Language                                 : enm
Default                                  : No
Forced                                   : No

Menu
00:00:00.000                             : Ident
00:00:05.980                             : Part A
00:04:22.583                             : Part B
00:13:09.310                             : Ending

Other Files in this Torrent
[Some-Stuffs] Pokémon Concierge 04 (1080p) [1DB56697].mkv
beta
Anime DDL+NZB mirror
Current Time: 13/07/2024 18:48



About/FAQs

Discord