File Size557.3 MB (584,417,643 bytes)
DownloadClickNUpload | DailyUploads | DownloadGG | GoFile | KrakenFiles | MdiaLoad | Uppit
MultiUp: Part1
  • BdUpload
  • DownAce
  • Fichier
  • FileCloud
  • Filerio
  • FilesCdn
  • IndiShare
  • Kbagi
  • Turbobit
  • UpToBox
  • Uppit
, Part2
  • BdUpload
  • DownAce
  • Fichier
  • FileCloud
  • Filerio
  • FilesCdn
  • IndiShare
  • Kbagi
  • Turbobit
  • UpToBox
  • Uppit
HashesCRC32: 8CEF5D3A, MD5: 9944C22777DBBE4F22B0E640D4897C9B, SHA1: 0300BD242C1CC779D5C767965C1E9A1814D0A995, SHA256: 56F22E7ADD188DD8699607AC98D4A5199A7C2FA42661F6448EDE3BF8005052F7, ED2K: E4963A5C16FCA39A6245DC0CF1E3591B
Screenshots
screenshotscreenshotscreenshotscreenshotscreenshot
SubtitlesAll Attachments | eng [ASS], Honorifics [enm, ASS]
Additional Info
General
Unique ID                                : 65011272293767266768452589706689480858 (0x30E8B731C79A159298F46D8D1D79889A)
Complete name                            : [Some-Stuffs] Pokémon Concierge 02 (1080p) [8CEF5D3A].mkv
Format                                   : Matroska
Format version                           : Version 4
File size                                : 557 MiB
Duration                                 : 13 min 42 s
Overall bit rate mode                    : Variable
Overall bit rate                         : 5 688 kb/s
Frame rate                               : 24.000 FPS
Encoded date                             : 2024-01-09 20:34:27 UTC
Writing application                      : mkvmerge v82.0 ('I'm The President') 64-bit
Writing library                          : libebml v1.4.5 + libmatroska v1.7.1
Attachments                              : Boogaloo-Regular.ttf / candarab.ttf / candaraz.ttf

Video
ID                                       : 1
Format                                   : AVC
Format/Info                              : Advanced Video Codec
Format profile                           : Main@L4
Format settings                          : CABAC / 3 Ref Frames
Format settings, CABAC                   : Yes
Format settings, Reference frames        : 3 frames
Codec ID                                 : V_MPEG4/ISO/AVC
Duration                                 : 13 min 42 s
Bit rate mode                            : Variable
Bit rate                                 : 5 041 kb/s
Maximum bit rate                         : 7 500 kb/s
Width                                    : 1 920 pixels
Height                                   : 1 080 pixels
Display aspect ratio                     : 16:9
Frame rate mode                          : Constant
Frame rate                               : 24.000 FPS
Color space                              : YUV
Chroma subsampling                       : 4:2:0
Bit depth                                : 8 bits
Scan type                                : Progressive
Bits/(Pixel*Frame)                       : 0.101
Stream size                              : 494 MiB (89%)
Default                                  : Yes
Forced                                   : No

Audio
ID                                       : 2
Format                                   : E-AC-3
Format/Info                              : Enhanced AC-3
Commercial name                          : Dolby Digital Plus
Codec ID                                 : A_EAC3
Duration                                 : 13 min 41 s
Bit rate mode                            : Constant
Bit rate                                 : 640 kb/s
Channel(s)                               : 6 channels
Channel layout                           : L R C LFE Ls Rs
Sampling rate                            : 48.0 kHz
Frame rate                               : 31.250 FPS (1536 SPF)
Compression mode                         : Lossy
Delay relative to video                  : 16 ms
Stream size                              : 62.7 MiB (11%)
Language                                 : Japanese
Service kind                             : Complete Main
Default                                  : Yes
Forced                                   : No

Text #1
ID                                       : 3
Format                                   : ASS
Codec ID                                 : S_TEXT/ASS
Codec ID/Info                            : Advanced Sub Station Alpha
Duration                                 : 13 min 5 s
Bit rate                                 : 108 b/s
Frame rate                               : 0.219 FPS
Count of elements                        : 172
Compression mode                         : Lossless
Stream size                              : 10.4 KiB (0%)
Language                                 : English
Default                                  : Yes
Forced                                   : No

Text #2
ID                                       : 4
Format                                   : ASS
Codec ID                                 : S_TEXT/ASS
Codec ID/Info                            : Advanced Sub Station Alpha
Duration                                 : 13 min 5 s
Bit rate                                 : 108 b/s
Frame rate                               : 0.219 FPS
Count of elements                        : 172
Compression mode                         : Lossless
Stream size                              : 10.4 KiB (0%)
Title                                    : Honorifics
Language                                 : enm
Default                                  : No
Forced                                   : No

Menu
00:00:00.000                             : Ident
00:00:05.980                             : Part A
00:04:59.940                             : Part B
00:11:36.440                             : Ending
beta
Anime DDL+NZB mirror
Current Time: 14/07/2024 16:31



About/FAQs

Discord