[Strelizia] Musashi Gundoh - 12 [DVDRip x264 AAC] [2EC5C7EA].mkv


File Size173.7 MB (182,138,817 bytes)
DownloadAnonFiles | ClickNUpload | DownloadGG | GoFile | KrakenFiles | MdiaLoad | MultiUp
  • BdUpload
  • DownAce
  • Fichier
  • FileCloud
  • Filerio
  • FilesCdn
  • IndiShare
  • Kbagi
  • Turbobit
  • UpToBox
  • Uppit
| ZippyShare
HashesCRC32: 2EC5C7EA, MD5: 0F5B68D090D00219209110C0E5389412, SHA1: 7499CBC9965817DD928C5CD253980C4CB5619399, SHA256: 78E27DFF72FD2886A4F2E7F0D22A9A4C8A34ED4959CF1079C1235F33525D0C83, ED2K: 86533C1CFFE6BCD2F3AFD1BB22F79413
Screenshots
screenshotscreenshotscreenshotscreenshotscreenshot
SubtitlesAll Attachments | Strelizia [eng, ASS], Strelizia (without karaoke) [eng, ASS]
Additional Info
General
Unique ID                                : 171129392470581874594753386510452039394 (0x80BE527744AB65A4A588B8FAEF589EE2)
Complete name                            : [Strelizia] Musashi Gundoh - 12 [DVDRip x264 AAC] [2EC5C7EA].mkv
Format                                   : Matroska
Format version                           : Version 4
File size                                : 174 MiB
Duration                                 : 25 min 45 s
Overall bit rate                         : 943 kb/s
Encoded date                             : UTC 2023-03-27 23:07:36
Writing application                      : mkvmerge v75.0.0 ('Goliath') 64-bit
Writing library                          : libebml v1.4.4 + libmatroska v1.7.1 / Lavf60.2.100
Attachments                              : Shodo_font190430-Regular.ttf / CAC Moose.ttf / Blues Smile.otf / Profile-Medium.otf / Profile-MediumItalic.otf

Video
ID                                       : 1
Format                                   : AVC
Format/Info                              : Advanced Video Codec
Format profile                           : High@L4
Format settings                          : CABAC / 16 Ref Frames
Format settings, CABAC                   : Yes
Format settings, Reference frames        : 16 frames
Codec ID                                 : V_MPEG4/ISO/AVC
Duration                                 : 25 min 45 s
Bit rate                                 : 775 kb/s
Width                                    : 760 pixels
Height                                   : 428 pixels
Display aspect ratio                     : 16:9
Frame rate mode                          : Constant
Frame rate                               : 23.976 (24000/1001) FPS
Color space                              : YUV
Chroma subsampling                       : 4:2:0
Bit depth                                : 8 bits
Scan type                                : Progressive
Bits/(Pixel*Frame)                       : 0.099
Stream size                              : 143 MiB (82%)
Writing library                          : x264 core 164 r3106M eaa68fa
Encoding settings                        : cabac=1 / ref=16 / deblock=1:0:0 / analyse=0x3:0x133 / me=umh / subme=10 / psy=1 / psy_rd=1.00:0.00 / mixed_ref=1 / me_range=24 / chroma_me=1 / trellis=2 / 8x8dct=1 / cqm=0 / deadzone=21,11 / fast_pskip=1 / chroma_qp_offset=-2 / threads=6 / lookahead_threads=1 / sliced_threads=0 / nr=0 / decimate=1 / interlaced=0 / bluray_compat=0 / constrained_intra=0 / bframes=8 / b_pyramid=2 / b_adapt=2 / b_bias=0 / direct=3 / weightb=1 / open_gop=0 / weightp=2 / keyint=250 / keyint_min=23 / scenecut=40 / intra_refresh=0 / rc_lookahead=60 / rc=crf / mbtree=1 / crf=18.0 / qcomp=0.60 / qpmin=0 / qpmax=69 / qpstep=4 / ip_ratio=1.40 / aq=1:1.00
Language                                 : Japanese
Default                                  : No
Forced                                   : No
Color range                              : Limited
Matrix coefficients                      : BT.470 System B/G

Audio
ID                                       : 2
Format                                   : AAC LC
Format/Info                              : Advanced Audio Codec Low Complexity
Codec ID                                 : A_AAC-2
Duration                                 : 25 min 45 s
Bit rate                                 : 160 kb/s
Channel(s)                               : 2 channels
Channel layout                           : L R
Sampling rate                            : 48.0 kHz
Frame rate                               : 46.875 FPS (1024 SPF)
Compression mode                         : Lossy
Stream size                              : 29.5 MiB (17%)
Writing library                          : Lavc60.2.100 libfdk_aac
Language                                 : Japanese
Default                                  : Yes
Forced                                   : No

Text #1
ID                                       : 3
Format                                   : ASS
Codec ID                                 : S_TEXT/ASS
Codec ID/Info                            : Advanced Sub Station Alpha
Duration                                 : 25 min 27 s
Bit rate                                 : 3 820 b/s
Count of elements                        : 3267
Compression mode                         : Lossless
Stream size                              : 712 KiB (0%)
Title                                    : Strelizia
Language                                 : English
Default                                  : Yes
Forced                                   : No

Text #2
ID                                       : 4
Format                                   : ASS
Codec ID                                 : S_TEXT/ASS
Codec ID/Info                            : Advanced Sub Station Alpha
Duration                                 : 24 min 28 s
Bit rate                                 : 76 b/s
Count of elements                        : 248
Compression mode                         : Lossless
Stream size                              : 13.8 KiB (0%)
Title                                    : Strelizia (without karaoke)
Language                                 : English
Default                                  : No
Forced                                   : No
beta
Anime DDL+NZB mirror
Current Time: 25/07/2024 16:50



About/FAQs

Discord