File Size354.9 MB (372,098,087 bytes)
DownloadClickNUpload | Jheberg | MultiUp
  • BdUpload
  • DownAce
  • Fichier
  • FileCloud
  • Filerio
  • FilesCdn
  • IndiShare
  • Kbagi
  • Solidfiles
  • Turbobit
  • UpToBox
  • Uppit
| OpenLoad | SolidFiles | ZippyShare
Sendspace: Part1, Part2
HashesCRC32: AE729083, MD5: 1F6EEF7B0ECD27F943076FFA40AFE3C2, SHA1: EF572711CF5394453F85C25C5DF1A6A4025E4F4D, SHA256: 419DFE2CFDF854734955F2AA7579BB067F03BCC905BF117E9E01E2C5AAE52537, ED2K: DC29F36A694D9A174D7425B2FF54E681
Screenshots
screenshotscreenshotscreenshotscreenshotscreenshot
SubtitlesAll Attachments | eng [ASS]
Additional Info
General
Unique ID                                : 177559976718686062967083677873704569405 (0x8594CEBF71F8120AB60E20B085348A3D)
Complete name                            : [STE-Subs] Rockman.EXE - 13 [AE729083].mkv
Format                                   : Matroska
Format version                           : Version 4
File size                                : 355 MiB
Duration                                 : 23 min 35 s
Overall bit rate                         : 2 103 kb/s
Encoded date                             : UTC 2019-06-05 21:06:10
Writing application                      : mkvmerge v7.8.0 ('River Man') 32bit built on Mar 27 2015 16:18:02
Writing library                          : libebml v1.3.1 + libmatroska v1.4.2
Attachments                              : AndBasR.ttf / GIL_____.TTF / GILI____.TTF / impact.ttf / mini_pixel-7.ttf / Street Corner.ttf / TCBI____.TTF

Video
ID                                       : 1
Format                                   : AVC
Format/Info                              : Advanced Video Codec
Format profile                           : High 10@L4.1
Format settings                          : CABAC / 12 Ref Frames
Format settings, CABAC                   : Yes
Format settings, ReFrames                : 12 frames
Codec ID                                 : V_MPEG4/ISO/AVC
Duration                                 : 23 min 35 s
Bit rate                                 : 1 841 kb/s
Width                                    : 960 pixels
Height                                   : 720 pixels
Display aspect ratio                     : 4:3
Frame rate mode                          : Constant
Frame rate                               : 23.976 (24000/1001) FPS
Color space                              : YUV
Chroma subsampling                       : 4:2:0
Bit depth                                : 10 bits
Scan type                                : Progressive
Bits/(Pixel*Frame)                       : 0.111
Stream size                              : 311 MiB (88%)
Writing library                          : x264 core 155 r2901 7d0ff22
Encoding settings                        : cabac=1 / ref=12 / deblock=1:1:2 / analyse=0x3:0x133 / me=umh / subme=9 / psy=1 / psy_rd=0.40:0.00 / mixed_ref=1 / me_range=16 / chroma_me=1 / trellis=2 / 8x8dct=1 / cqm=0 / deadzone=21,11 / fast_pskip=1 / chroma_qp_offset=-2 / threads=12 / lookahead_threads=1 / sliced_threads=0 / nr=0 / decimate=1 / interlaced=0 / bluray_compat=0 / stitchable=1 / constrained_intra=0 / bframes=5 / b_pyramid=2 / b_adapt=2 / b_bias=0 / direct=3 / weightb=1 / open_gop=0 / weightp=2 / keyint=240 / keyint_min=23 / scenecut=40 / intra_refresh=0 / rc_lookahead=60 / rc=crf / mbtree=1 / crf=17.0 / qcomp=0.60 / qpmin=10 / qpmax=51 / qpstep=4 / vbv_maxrate=62500 / vbv_bufsize=78125 / crf_max=0.0 / nal_hrd=none / filler=0 / ip_ratio=1.40 / aq=1:0.60
Language                                 : Japanese
Default                                  : Yes
Forced                                   : No

Audio
ID                                       : 2
Format                                   : AAC LC
Format/Info                              : Advanced Audio Codec Low Complexity
Codec ID                                 : A_AAC-2
Duration                                 : 23 min 35 s
Bit rate                                 : 256 kb/s
Channel(s)                               : 2 channels
Channel layout                           : L R
Sampling rate                            : 48.0 kHz
Frame rate                               : 46.875 FPS (1024 SPF)
Compression mode                         : Lossy
Delay relative to video                  : 9 ms
Stream size                              : 43.2 MiB (12%)
Language                                 : Japanese
Default                                  : Yes
Forced                                   : No

Text
ID                                       : 3
Format                                   : ASS
Codec ID                                 : S_TEXT/ASS
Codec ID/Info                            : Advanced Sub Station Alpha
Duration                                 : 23 min 35 s
Bit rate                                 : 100 b/s
Count of elements                        : 323
Compression mode                         : Lossless
Stream size                              : 17.4 KiB (0%)
Language                                 : English
Default                                  : Yes
Forced                                   : No

Menu
00:23:04.925                             : en:Intro
00:01:34.052                             : en:Opening
00:03:04.017                             : en:Part A
00:11:35.028                             : en:Part B
00:21:35.085                             : en:Ending
00:23:05.050                             : en:Preview
beta
Anime DDL+NZB mirror
Current Time: 28/01/2023 13:55



About/FAQs

Discord