[StaRSubbeR] MS Gundam ZZ - [x264 - LC AAC - Italian Sub - 960x720] Ep.13.mp4


File Size197.9 MB (207,529,196 bytes)
HashesCRC32: AEF38D06, MD5: C56CB526A52B27BCCE5450A64F813E22, SHA1: 61DB35E3D7AD4B557F8C234FC55FB8DE967B284F
Screenshots
screenshotscreenshotscreenshotscreenshotscreenshot
Additional Info
General
Complete name                    : [StaRSubbeR] MS Gundam ZZ - [x264 - LC AAC - Italian Sub - 960x720] Ep.13.mp4
Format                           : MPEG-4
Format profile                   : Base Media
Codec ID                         : isom
File size                        : 198 MiB
Duration                         : 24mn 13s
Overall bit rate                 : 1 143 Kbps
Encoded date                     : UTC 2011-07-06 18:34:57
Tagged date                      : UTC 2011-07-06 18:34:57

Video
ID                               : 1
Format                           : AVC
Format/Info                      : Advanced Video Codec
Format profile                   : High@L4.1
Format settings, CABAC           : Yes
Format settings, ReFrames        : 6 frames
Codec ID                         : avc1
Codec ID/Info                    : Advanced Video Coding
Duration                         : 24mn 12s
Bit rate mode                    : Variable
Bit rate                         : 1 043 Kbps
Maximum bit rate                 : 6 300 Kbps
Width                            : 960 pixels
Height                           : 720 pixels
Display aspect ratio             : 4:3
Frame rate mode                  : Constant
Frame rate                       : 23.976 fps
Color space                      : YUV
Chroma subsampling               : 4:2:0
Bit depth                        : 8 bits
Scan type                        : Progressive
Bits/(Pixel*Frame)               : 0.063
Stream size                      : 181 MiB (91%)
Writing library                  : x264 core 115 r1995 c1e60b9
Encoding settings                : cabac=1 / ref=6 / deblock=1:1:1 / analyse=0x3:0x113 / me=hex / subme=7 / psy=1 / psy_rd=0.40:0.00 / mixed_ref=1 / me_range=16 / chroma_me=1 / trellis=0 / 8x8dct=1 / cqm=0 / deadzone=21,11 / fast_pskip=1 / chroma_qp_offset=-2 / threads=3 / sliced_threads=0 / nr=0 / decimate=1 / interlaced=0 / bluray_compat=0 / constrained_intra=0 / bframes=5 / b_pyramid=0 / b_adapt=1 / b_bias=0 / direct=1 / weightb=1 / open_gop=0 / weightp=2 / keyint=250 / keyint_min=23 / scenecut=40 / intra_refresh=0 / rc=cqp / mbtree=0 / qp=23 / ip_ratio=1.40 / pb_ratio=1.30 / aq=0
Encoded date                     : UTC 2011-07-06 17:32:16
Tagged date                      : UTC 2011-07-06 18:35:05

Audio
ID                               : 2
Format                           : AAC
Format/Info                      : Advanced Audio Codec
Format profile                   : LC
Codec ID                         : 40
Duration                         : 24mn 13s
Bit rate mode                    : Variable
Bit rate                         : 96.0 Kbps
Maximum bit rate                 : 106 Kbps
Channel(s)                       : 2 channels
Channel positions                : Front: L R
Sampling rate                    : 48.0 KHz
Compression mode                 : Lossy
Stream size                      : 16.6 MiB (8%)
Encoded date                     : UTC 2011-07-06 18:35:03
Tagged date                      : UTC 2011-07-06 18:35:05
beta
Anime DDL+NZB mirror
Current Time: 25/06/2024 14:31



About/FAQs

Discord