File Size200.5 MB (210,210,773 bytes)
DownloadAnonFiles | ClickNUpload | DropAPK | Free | MultiUp
  • BdUpload
  • DownAce
  • Fichier
  • FileCloud
  • Filerio
  • FilesCdn
  • IndiShare
  • Kbagi
  • Turbobit
  • UpToBox
  • Uppit
| Sendspace | SolidFiles | ZippyShare
HashesCRC32: B11C9961, MD5: 85EBBBB94780BCAC92ACA1A906DADF8A, SHA1: 8CF1260130E4F1F59DC9391F98767F7FBAE3FE94, SHA256: 22A590B12B945F960BF36729DFFCCCC987A710C6FE59351AC48DDA5D9BA68426, ED2K: 052CA519FE4557389BF3C3AAE84714ED
Screenshots
screenshotscreenshotscreenshotscreenshotscreenshot
SubtitlesAll Attachments | und [ASS]
Additional Info
General
Unique ID                                : 193865130554943277677351170611668020398 (0x91D910E615F6A995EC0E87F3B99B6CAE)
Complete name                            : [Stardust] Tonde Buurin - Episode 09 (h.264-Hi10P).mkv
Format                                   : Matroska
Format version                           : Version 4
File size                                : 200 MiB
Duration                                 : 23 min 57 s
Overall bit rate                         : 1 170 kb/s
Encoded date                             : UTC 2020-05-24 22:27:32
Writing application                      : mkvmerge v42.0.0 ('Overtime') 64-bit
Writing library                          : libebml v1.3.10 + libmatroska v1.5.2
Attachments                              : BASKVILL.TTF / chinrg_.ttf / FamicoBold.otf / HenzoBold.otf / HoboStd.otf / HoboStd_0.otf / HoboStd_1.otf / MiriaBold.otf / SeraphBold.otf / SpinsterExpBold.otf / TaffetaBoldItalic.otf

Video
ID                                       : 1
Format                                   : AVC
Format/Info                              : Advanced Video Codec
Format profile                           : High 10@L3
Format settings                          : CABAC / 5 Ref Frames
Format settings, CABAC                   : Yes
Format settings, ReFrames                : 5 frames
Codec ID                                 : V_MPEG4/ISO/AVC
Duration                                 : 23 min 53 s
Bit rate                                 : 1 000 kb/s
Width                                    : 640 pixels
Height                                   : 480 pixels
Display aspect ratio                     : 4:3
Frame rate mode                          : Constant
Frame rate                               : 23.976 (24000/1001) FPS
Color space                              : YUV
Chroma subsampling                       : 4:2:0
Bit depth                                : 10 bits
Scan type                                : Progressive
Bits/(Pixel*Frame)                       : 0.136
Stream size                              : 171 MiB (85%)
Writing library                          : x264 core 129 r2245+729M 1a52e03
Encoding settings                        : cabac=1 / ref=5 / deblock=1:1:2 / analyse=0x3:0x133 / me=umh / subme=7 / psy=1 / fade_compensate=0.00 / psy_rd=0.40:0.00 / mixed_ref=1 / me_range=16 / chroma_me=1 / trellis=1 / 8x8dct=1 / cqm=0 / deadzone=21,11 / fast_pskip=0 / chroma_qp_offset=-2 / threads=12 / lookahead_threads=2 / sliced_threads=0 / nr=0 / decimate=0 / interlaced=0 / bluray_compat=0 / constrained_intra=0 / fgo=0 / bframes=5 / b_pyramid=2 / b_adapt=1 / b_bias=0 / direct=1 / weightb=1 / open_gop=0 / weightp=2 / keyint=240 / keyint_min=23 / scenecut=40 / intra_refresh=0 / rc_lookahead=40 / rc=2pass / mbtree=1 / bitrate=1000 / ratetol=1.0 / qcomp=0.60 / qpmin=0 / qpmax=81 / qpstep=4 / cplxblur=20.0 / qblur=0.5 / ip_ratio=1.40 / aq=1:0.60
Default                                  : Yes
Forced                                   : No

Audio
ID                                       : 2
Format                                   : AAC LC
Format/Info                              : Advanced Audio Codec Low Complexity
Codec ID                                 : A_AAC-2
Duration                                 : 23 min 53 s
Bit rate                                 : 168 kb/s
Channel(s)                               : 2 channels
Channel layout                           : L R
Sampling rate                            : 48.0 kHz
Frame rate                               : 46.875 FPS (1024 SPF)
Compression mode                         : Lossy
Delay relative to video                  : 9 ms
Stream size                              : 28.7 MiB (14%)
Default                                  : Yes
Forced                                   : No

Text
ID                                       : 3
Format                                   : ASS
Codec ID                                 : S_TEXT/ASS
Codec ID/Info                            : Advanced Sub Station Alpha
Duration                                 : 23 min 57 s
Bit rate                                 : 173 b/s
Count of elements                        : 512
Compression mode                         : Lossless
Stream size                              : 30.5 KiB (0%)
Default                                  : Yes
Forced                                   : No
beta
Anime DDL+NZB mirror
Current Time: 29/09/2020 22:45



About/FAQs