Star Babies (星与星愿) - 01 [ARR][Dub].mp4


File Size22.68 MB (23,780,687 bytes)
DownloadClickNUpload | Jheberg
  • 1Fichier
  • 2Giga
  • BDupload
  • ClicknUpload
  • Filerio
  • FilesCDN
  • FilesUpload
  • Free
  • MegaUp
  • Nitroflare
  • Openload
  • ShareOnline
  • Solidfiles
  • Turbobit
  • Tusfiles
  • Uppit
  • Uptobox
  • ddlTo
| MultiUp
  • BdUpload
  • DownAce
  • Fichier
  • FileCloud
  • Filerio
  • FilesCdn
  • IndiShare
  • Kbagi
  • Solidfiles
  • Turbobit
  • UpToBox
  • Uppit
| OpenLoad | Sendspace | ZippyShare
HashesCRC32: 07FD798E, MD5: 1EDB32BF85044A2B67A63F2345B92822, SHA1: B386D490CC7201294ED68122BB7B09A2259F850C, SHA256: 4CDD0E2F935BD98BF9535905F35E1F46FB1F00DB74AB9FF157D9B8C827E36DC4, ED2K: B4DED5D13A9680E5B8F9E01C4CF1D41F
Screenshots
screenshotscreenshotscreenshotscreenshotscreenshot
Additional Info
General
Complete name                            : Star Babies (星与星愿) - 01 [ARR][Dub].mp4
Format                                   : MPEG-4
Format profile                           : Base Media / Version 2
Codec ID                                 : mp42 (isom/mp42)
File size                                : 22.7 MiB
Duration                                 : 4 min 51 s
Overall bit rate mode                    : Variable
Overall bit rate                         : 653 kb/s
Encoded date                             : UTC 2018-06-13 09:30:15
Tagged date                              : UTC 2018-06-13 09:30:15

Video
ID                                       : 1
Format                                   : AVC
Format/Info                              : Advanced Video Codec
Format profile                           : Baseline@L3
Format settings                          : 1 Ref Frames
Format settings, CABAC                   : No
Format settings, ReFrames                : 1 frame
Codec ID                                 : avc1
Codec ID/Info                            : Advanced Video Coding
Duration                                 : 4 min 51 s
Bit rate                                 : 554 kb/s
Width                                    : 640 pixels
Height                                   : 360 pixels
Display aspect ratio                     : 16:9
Frame rate mode                          : Constant
Frame rate                               : 25.000 FPS
Color space                              : YUV
Chroma subsampling                       : 4:2:0
Bit depth                                : 8 bits
Scan type                                : Progressive
Bits/(Pixel*Frame)                       : 0.096
Stream size                              : 19.3 MiB (85%)
Title                                    : ISO Media file produced by Google Inc. Created on: 06/13/2018.
Encoded date                             : UTC 2018-06-13 09:30:15
Tagged date                              : UTC 2018-06-13 09:30:15
Color range                              : Limited
Color primaries                          : BT.709
Transfer characteristics                 : BT.709
Matrix coefficients                      : BT.709
Codec configuration box                  : avcC

Audio
ID                                       : 2
Format                                   : AAC LC
Format/Info                              : Advanced Audio Codec Low Complexity
Codec ID                                 : mp4a-40-2
Duration                                 : 4 min 51 s
Bit rate mode                            : Variable
Bit rate                                 : 96.0 kb/s
Channel(s)                               : 2 channels
Channel layout                           : L R
Sampling rate                            : 44.1 kHz
Frame rate                               : 43.066 FPS (1024 SPF)
Compression mode                         : Lossy
Stream size                              : 3.34 MiB (15%)
Title                                    : ISO Media file produced by Google Inc. Created on: 06/13/2018.
Language                                 : English
Encoded date                             : UTC 2018-06-13 09:30:15
Tagged date                              : UTC 2018-06-13 09:30:15
beta
Anime DDL+NZB mirror
Current Time: 20/09/2019 19:24



About/FAQs