File Size161.8 MB (169,614,943 bytes)
DownloadAnonFiles | ClickNUpload | DropAPK | Free | MultiUp
  • BdUpload
  • DownAce
  • Fichier
  • FileCloud
  • Filerio
  • FilesCdn
  • IndiShare
  • Kbagi
  • Turbobit
  • UpToBox
  • Uppit
| SolidFiles | ZippyShare
HashesCRC32: B6A49A28, MD5: FFC0C8DAC37CE7593D07B32FCC34176D, SHA1: 950BBDE9BBE91FA30450E30BF53F974C636572D8, SHA256: 89FF3EF113E448F64AEFDB479B4DC295DB0CF81CCEDF9743A454D54DB07B1CBC, ED2K: 2322224F91D2E522975052965CB0B39D
Screenshots
screenshotscreenshotscreenshotscreenshotscreenshot
SubtitlesAll Attachments | English subs [eng, ASS]
Additional Info
General
Unique ID                                : 334379353989704255278630313610735529416 (0xFB8F1EFE02313E86AA04298B80F42DC8)
Complete name                            : [SSA] Yuukoku no Moriarty - 20 [1080p].mkv
Format                                   : Matroska
Format version                           : Version 4
File size                                : 162 MiB
Duration                                 : 23 min 53 s
Overall bit rate                         : 947 kb/s
Writing application                      : Lavf58.65.101
Writing library                          : Lavf58.65.101
ErrorDetectionType                       : Per level 1
ENCODER_SETTINGS                         : Redacted, CPU - 2xAMD EPYC 7282 32 cores/64 threads, GPU - None used

Video
ID                                       : 1
Format                                   : HEVC
Format/Info                              : High Efficiency Video Coding
Format profile                           : Main@L4@Main
Codec ID                                 : V_MPEGH/ISO/HEVC
Duration                                 : 23 min 53 s
Bit rate                                 : 6 136 kb/s
Width                                    : 1 920 pixels
Height                                   : 1 080 pixels
Display aspect ratio                     : 16:9
Frame rate mode                          : Constant
Frame rate                               : 23.976 (24000/1001) FPS
Color space                              : YUV
Chroma subsampling                       : 4:2:0
Bit depth                                : 8 bits
Bits/(Pixel*Frame)                       : 0.123
Stream size                              : 1.02 GiB
Writing library                          : Lavc58.115.102 libx265
Default                                  : Yes
Forced                                   : No
Color range                              : Limited
Color primaries                          : BT.709
Transfer characteristics                 : BT.709
Matrix coefficients                      : BT.709

Audio
ID                                       : 2
Format                                   : AAC LC
Format/Info                              : Advanced Audio Codec Low Complexity
Codec ID                                 : A_AAC-2
Duration                                 : 23 min 53 s
Bit rate                                 : 256 kb/s
Channel(s)                               : 2 channels
Channel layout                           : L R
Sampling rate                            : 48.0 kHz
Frame rate                               : 46.875 FPS (1024 SPF)
Compression mode                         : Lossy
Stream size                              : 43.7 MiB (27%)
Writing library                          : Lavc58.115.102 aac
Language                                 : Japanese
Default                                  : Yes
Forced                                   : No

Text
ID                                       : 3
Format                                   : ASS
Codec ID                                 : S_TEXT/ASS
Codec ID/Info                            : Advanced Sub Station Alpha
Duration                                 : 23 min 49 s
Bit rate                                 : 95 b/s
Count of elements                        : 270
Compression mode                         : Lossless
Stream size                              : 16.5 KiB (0%)
Title                                    : English subs
Writing library                          : Lavc58.115.102 ssa
Language                                 : English
Default                                  : Yes
Forced                                   : No
beta
Anime DDL+NZB mirror
Current Time: 18/08/2022 17:37



About/FAQs

Discord