File Size164.8 MB (172,804,511 bytes)
DownloadAnonFiles | ClickNUpload | DropAPK | Free | MultiUp
  • BdUpload
  • DownAce
  • Fichier
  • FileCloud
  • Filerio
  • FilesCdn
  • IndiShare
  • Kbagi
  • Turbobit
  • UpToBox
  • Uppit
| SolidFiles | ZippyShare
HashesCRC32: 93C12799, MD5: 3368D227AA55508791D739B82D035578, SHA1: 8642D3AB9C4C35BF4E3C40E44EBC670E8C9F4B7F, SHA256: 7A084E8CC09474755C6B79012631CF9CE6002129B0B4C1937E35FCA28B283F85, ED2K: BA9F33888CDCB033BC2E177A0DD33C5F
Screenshots
screenshotscreenshotscreenshotscreenshotscreenshot
SubtitlesAll Attachments | English subs [eng, ASS]
Additional Info
General
Unique ID                                : 292097972658689846242667757973790835651 (0xDBC005F1FF0098C70D28BEA06A04C3C3)
Complete name                            : [SSA] Yuru Camp S2 - 01v2 [1080p].mkv
Format                                   : Matroska
Format version                           : Version 4
File size                                : 165 MiB
Duration                                 : 23 min 42 s
Overall bit rate                         : 972 kb/s
Writing application                      : Lavf58.64.100
Writing library                          : Lavf58.64.100
ErrorDetectionType                       : Per level 1

Video
ID                                       : 1
Format                                   : HEVC
Format/Info                              : High Efficiency Video Coding
Format profile                           : Main@L4@Main
Codec ID                                 : V_MPEGH/ISO/HEVC
Duration                                 : 23 min 40 s
Bit rate                                 : 7 966 kb/s
Width                                    : 1 920 pixels
Height                                   : 1 080 pixels
Display aspect ratio                     : 16:9
Frame rate mode                          : Variable
Frame rate                               : 23.976 FPS
Color space                              : YUV
Chroma subsampling                       : 4:2:0
Bit depth                                : 8 bits
Bits/(Pixel*Frame)                       : 0.160
Stream size                              : 1.32 GiB
Writing library                          : Lavc58.112.101 libx265
Default                                  : Yes
Forced                                   : No
Color range                              : Limited
Color primaries                          : BT.709
Transfer characteristics                 : BT.709
Matrix coefficients                      : BT.709

Audio
ID                                       : 2
Format                                   : AAC LC
Format/Info                              : Advanced Audio Codec Low Complexity
Codec ID                                 : A_AAC-2
Duration                                 : 23 min 40 s
Bit rate                                 : 128 kb/s
Channel(s)                               : 2 channels
Channel layout                           : L R
Sampling rate                            : 44.1 kHz
Frame rate                               : 43.066 FPS (1024 SPF)
Compression mode                         : Lossy
Stream size                              : 21.7 MiB (13%)
Writing library                          : Lavc58.112.101 aac
Language                                 : Japanese
Default                                  : Yes
Forced                                   : No

Text
ID                                       : 3
Format                                   : ASS
Codec ID                                 : S_TEXT/ASS
Codec ID/Info                            : Advanced Sub Station Alpha
Duration                                 : 23 min 42 s
Bit rate                                 : 92 b/s
Count of elements                        : 276
Compression mode                         : Lossless
Stream size                              : 15.8 KiB (0%)
Title                                    : English subs
Writing library                          : Lavc58.112.101 ssa
Language                                 : English
Default                                  : Yes
Forced                                   : No
beta
Anime DDL+NZB mirror
Current Time: 16/04/2021 17:24



About/FAQs