[SSA] Youjo Shachou - 01 [480p].mkv


File Size120.0 MB (125,849,939 bytes)
DownloadAnonFiles | ClickNUpload | DropAPK | Free | MultiUp
  • BdUpload
  • DownAce
  • Fichier
  • FileCloud
  • Filerio
  • FilesCdn
  • IndiShare
  • Kbagi
  • Turbobit
  • UpToBox
  • Uppit
| SolidFiles | ZippyShare
HashesCRC32: 20A1E6AC, MD5: 2D8DB7F0A04611C65C732CCE70818B30, SHA1: 3292AD041C6A7F7C2FFB0864627BCA3016DDBE08, SHA256: 6CE2A510199D2A0389B611573B244620E31A1CD20ED974438467328F35F08B9F, ED2K: B4E28E5BF192D1A006E4450FE913D0A5
Screenshots
screenshotscreenshotscreenshotscreenshotscreenshot
SubtitlesAll Attachments | English subs [eng, ASS]
Additional Info
General
Unique ID                                : 179335780521280746490792353010837515841 (0x86EAD0A2918C562D51817733E7566E41)
Complete name                            : [SSA] Youjo Shachou - 01 [480p].mkv
Format                                   : Matroska
Format version                           : Version 4
File size                                : 120 MiB
Duration                                 : 27 min 49 s
Overall bit rate                         : 603 kb/s
Writing application                      : Lavf58.64.100
Writing library                          : Lavf58.64.100
ErrorDetectionType                       : Per level 1

Video
ID                                       : 1
Format                                   : HEVC
Format/Info                              : High Efficiency Video Coding
Format profile                           : Main@L3@Main
Codec ID                                 : V_MPEGH/ISO/HEVC
Duration                                 : 27 min 49 s
Bit rate                                 : 7 965 kb/s
Width                                    : 848 pixels
Height                                   : 480 pixels
Display aspect ratio                     : 16:9
Frame rate mode                          : Variable
Frame rate                               : 23.976 FPS
Color space                              : YUV
Chroma subsampling                       : 4:2:0
Bit depth                                : 8 bits
Bits/(Pixel*Frame)                       : 0.816
Stream size                              : 1.55 GiB
Writing library                          : Lavc58.112.101 libx265
Default                                  : Yes
Forced                                   : No
Color range                              : Limited
Color primaries                          : BT.709
Transfer characteristics                 : BT.709
Matrix coefficients                      : BT.709

Audio
ID                                       : 2
Format                                   : AAC LC
Format/Info                              : Advanced Audio Codec Low Complexity
Codec ID                                 : A_AAC-2
Duration                                 : 27 min 49 s
Bit rate                                 : 128 kb/s
Channel(s)                               : 2 channels
Channel layout                           : L R
Sampling rate                            : 44.1 kHz
Frame rate                               : 43.066 FPS (1024 SPF)
Compression mode                         : Lossy
Stream size                              : 25.5 MiB (21%)
Writing library                          : Lavc58.112.101 aac
Language                                 : Japanese
Default                                  : Yes
Forced                                   : No

Text
ID                                       : 3
Format                                   : ASS
Codec ID                                 : S_TEXT/ASS
Codec ID/Info                            : Advanced Sub Station Alpha
Duration                                 : 27 min 48 s
Bit rate                                 : 339 b/s
Count of elements                        : 1111
Compression mode                         : Lossless
Stream size                              : 65.3 KiB (0%)
Title                                    : English subs
Writing library                          : Lavc58.112.101 ssa
Language                                 : English
Default                                  : Yes
Forced                                   : No
beta
Anime DDL+NZB mirror
Current Time: 19/10/2021 12:18



About/FAQs

Discord