File Size12.07 MB (12,657,932 bytes)
DownloadAnonFiles | ClickNUpload | DropAPK | Free | MultiUp
  • BdUpload
  • DownAce
  • Fichier
  • FileCloud
  • Filerio
  • FilesCdn
  • IndiShare
  • Kbagi
  • Turbobit
  • UpToBox
  • Uppit
| SolidFiles | ZippyShare
HashesCRC32: 606D8573, MD5: 65F8A9ABD0A5D332F03D8EEFFFBB434E, SHA1: CFA69F7DB63D65B901D7F645ACB49D612D622C3A, SHA256: 2E971E1276229758C45C5EA0A3930D5C1860FED087B734EE47F9A66F14320E77, ED2K: 828EAFFAEF90FCFC93138F9F90629863
Screenshots
screenshotscreenshotscreenshotscreenshotscreenshot
SubtitlesAll Attachments | English subs [eng, ASS]
Additional Info
General
Unique ID                                : 5997032555958538541343635795920182222 (0x482FC887DE23BAE43866E439C825BCE)
Complete name                            : [SSA] Yami Shibai 8 - 02 [480p].mkv
Format                                   : Matroska
Format version                           : Version 4
File size                                : 12.1 MiB
Duration                                 : 4 min 34 s
Overall bit rate                         : 369 kb/s
Writing application                      : Lavf58.65.101
Writing library                          : Lavf58.65.101
ErrorDetectionType                       : Per level 1

Video
ID                                       : 1
Format                                   : HEVC
Format/Info                              : High Efficiency Video Coding
Format profile                           : Main@L3@Main
Codec ID                                 : V_MPEGH/ISO/HEVC
Duration                                 : 4 min 34 s
Bit rate                                 : 7 904 kb/s
Width                                    : 848 pixels
Height                                   : 480 pixels
Display aspect ratio                     : 16:9
Frame rate mode                          : Variable
Frame rate                               : 23.976 (23976/1000) FPS
Original frame rate                      : 23.976 (24000/1001) FPS
Color space                              : YUV
Chroma subsampling                       : 4:2:0
Bit depth                                : 8 bits
Bits/(Pixel*Frame)                       : 0.810
Stream size                              : 258 MiB
Writing library                          : Lavc58.115.102 libx265
Default                                  : Yes
Forced                                   : No
Color range                              : Limited
Color primaries                          : BT.709
Transfer characteristics                 : BT.709
Matrix coefficients                      : BT.709

Audio
ID                                       : 2
Format                                   : AAC LC
Format/Info                              : Advanced Audio Codec Low Complexity
Codec ID                                 : A_AAC-2
Duration                                 : 4 min 34 s
Bit rate                                 : 128 kb/s
Channel(s)                               : 2 channels
Channel layout                           : L R
Sampling rate                            : 44.1 kHz
Frame rate                               : 43.066 FPS (1024 SPF)
Compression mode                         : Lossy
Stream size                              : 4.19 MiB (35%)
Writing library                          : Lavc58.115.102 aac
Language                                 : Japanese
Default                                  : Yes
Forced                                   : No

Text
ID                                       : 3
Format                                   : ASS
Codec ID                                 : S_TEXT/ASS
Codec ID/Info                            : Advanced Sub Station Alpha
Duration                                 : 4 min 2 s
Bit rate                                 : 163 b/s
Count of elements                        : 75
Compression mode                         : Lossless
Stream size                              : 4.64 KiB (0%)
Title                                    : English subs
Writing library                          : Lavc58.115.102 ssa
Language                                 : English
Default                                  : Yes
Forced                                   : No

Other Files in this Torrent
[SSA] Yami Shibai 8 - 02 [480p].mkv
beta
Anime DDL+NZB mirror
Current Time: 22/02/2024 21:10



About/FAQs

Discord