File Size205.7 MB (215,671,196 bytes)
DownloadAnonFiles | ClickNUpload | DropAPK | Free | MultiUp
  • BdUpload
  • DownAce
  • Fichier
  • FileCloud
  • Filerio
  • FilesCdn
  • IndiShare
  • Kbagi
  • Turbobit
  • UpToBox
  • Uppit
| Sendspace | ZippyShare
HashesCRC32: 13A97EEA, MD5: BD22AC4D737BCDAAE92B9260627020F4, SHA1: 6B612068F9B2078731316148B32F1D51B636CF8F, SHA256: 5C99C6130A62AB16FF10DEF4827C236F131B4071099E96116300D0767F012B39, ED2K: 1CB289D10A01D9C3D43C3B5FAF6B0F6F
Screenshots
screenshotscreenshotscreenshotscreenshotscreenshot
Additional Info
General
Complete name                            : [SSA] Sword Art Online - Alicization - War of Underworld - 11 [1080p].mp4
Format                                   : MPEG-4
Format profile                           : Base Media
Codec ID                                 : isom (isom/iso2/mp41)
File size                                : 206 MiB
Duration                                 : 23 min 40 s
Overall bit rate mode                    : Variable
Overall bit rate                         : 1 215 kb/s
Writing application                      : Lavf58.45.100

Video
ID                                       : 1
Format                                   : HEVC
Format/Info                              : High Efficiency Video Coding
Format profile                           : Main@L4@Main
Codec ID                                 : hev1
Codec ID/Info                            : High Efficiency Video Coding
Duration                                 : 23 min 40 s
Bit rate                                 : 1 118 kb/s
Width                                    : 1 920 pixels
Height                                   : 1 080 pixels
Display aspect ratio                     : 16:9
Frame rate mode                          : Constant
Frame rate                               : 23.976 (24000/1001) FPS
Color space                              : YUV
Chroma subsampling                       : 4:2:0
Bit depth                                : 8 bits
Scan type                                : Progressive
Bits/(Pixel*Frame)                       : 0.022
Stream size                              : 189 MiB (92%)
Color range                              : Limited
Color primaries                          : BT.709
Transfer characteristics                 : BT.709
Matrix coefficients                      : BT.709
Codec configuration box                  : hvcC

Audio
ID                                       : 2
Format                                   : AAC LC
Format/Info                              : Advanced Audio Codec Low Complexity
Codec ID                                 : mp4a-40-2
Duration                                 : 23 min 40 s
Bit rate mode                            : Variable
Bit rate                                 : 89.4 kb/s
Maximum bit rate                         : 112 kb/s
Channel(s)                               : 2 channels
Channel layout                           : L R
Sampling rate                            : 44.1 kHz
Frame rate                               : 43.066 FPS (1024 SPF)
Compression mode                         : Lossy
Stream size                              : 15.1 MiB (7%)
Language                                 : Japanese
Default                                  : Yes
Alternate group                          : 1
beta
Anime DDL+NZB mirror
Current Time: 18/05/2021 10:32



About/FAQs